<?xml version="1.0" standalone="no"?>
<!DOCTYPE svg PUBLIC "-//W3C//DTD SVG 1.1//EN" "http://www.w3.org/Graphics/SVG/1.1/DTD/svg11.dtd" >
<svg>
<metadata>
Created by FontForge 20090622 at Thu Sep 14 09:42:37 2017
 By deploy user
&#194;&#169; 2014 The Monotype Corporation. All Rights Reserved.
</metadata>
<defs>
<font id="ArialNova-Light" horiz-adv-x="1139" >
  <font-face 
    font-family="Arial Nova Light"
    font-weight="300"
    font-stretch="normal"
    units-per-em="2048"
    panose-1="2 11 3 4 2 2 2 2 2 4"
    ascent="1638"
    descent="-410"
    x-height="1061"
    cap-height="1466"
    bbox="-832 -430 2444 1882"
    underline-thickness="102"
    underline-position="-154"
    unicode-range="U+0020-U+2122"
  />
<missing-glyph horiz-adv-x="1024" 
d="M129 0v1536h768v-1536h-768zM256 1409v-1280h512v1280h-512z" />
    <glyph glyph-name=".notdef" horiz-adv-x="1024" 
d="M129 0v1536h768v-1536h-768zM256 1409v-1280h512v1280h-512z" />
    <glyph glyph-name="glyph1" horiz-adv-x="0" 
 />
    <glyph glyph-name="glyph2" horiz-adv-x="537" 
 />
    <glyph glyph-name="space" unicode=" " horiz-adv-x="537" 
 />
    <glyph glyph-name="exclam" unicode="!" horiz-adv-x="682" 
d="M381 362h-82l-35 775v329h152v-329zM253 0v185h175v-185h-175z" />
    <glyph glyph-name="quotedbl" unicode="&#x22;" horiz-adv-x="569" 
d="M196 959h-91l-30 268v239h147v-239zM467 959h-90l-31 268v239h148v-239z" />
    <glyph glyph-name="numbersign" unicode="#" 
d="M438 1048h391l92 443h94l-92 -443h172v-92h-190l-91 -434h281v-92h-300l-99 -455h-94l99 455h-391l-99 -455h-94l99 455h-172v92h191l91 434h-282v92h300l92 443h94zM811 956h-391l-91 -434h391z" />
    <glyph glyph-name="dollar" unicode="$" 
d="M605 1491h2q165 -13 256.5 -99.5t128.5 -248.5l-127 -19q-52 242 -260 263v-576q164 -45 256.5 -102.5t131 -133.5t38.5 -185q0 -101 -45 -191.5t-141 -151t-240 -72.5v-182h-76v182q-191 7 -305.5 113.5t-141.5 308.5l122 17q24 -121 64.5 -190.5t103 -102.5t157.5 -41
v625q-126 31 -213.5 72.5t-143.5 119.5t-56 202q0 111 47 196t140 135.5t226 60.5v108h76v-108zM241 1102q0 -68 25.5 -117.5t88.5 -87t174 -63.5v553h-1q-141 -13 -214 -87.5t-73 -197.5zM906 390q0 88 -37.5 144t-101 88.5t-162.5 61.5v-604q143 19 222 100.5t79 209.5z
" />
    <glyph glyph-name="percent" unicode="%" horiz-adv-x="1782" 
d="M98 1087q0 125 40.5 216t114 139.5t170.5 48.5q98 0 172 -49t115 -140.5t41 -214.5q0 -124 -41 -215t-115.5 -139t-171.5 -48q-98 0 -171.5 48t-113.5 139t-40 215zM504 -53h-105l857 1544h104zM422 1395q-98 0 -151 -77t-53 -231q0 -148 52.5 -227t152.5 -79
q101 0 154.5 80t53.5 226q0 150 -53.5 229t-155.5 79zM1031 377q0 125 40.5 216t114 139.5t170.5 48.5q98 0 172 -49t115 -140.5t41 -214.5q0 -124 -41 -215t-114 -139t-173 -48q-98 0 -171.5 48t-113.5 139t-40 215zM1355 685q-98 0 -151 -77t-53 -231q0 -148 52.5 -227
t152.5 -79q101 0 154.5 80t53.5 226q0 150 -53.5 229t-155.5 79z" />
    <glyph glyph-name="ampersand" unicode="&#x26;" horiz-adv-x="1366" 
d="M1307 84l-86 -109q-50 39 -122 109t-107 112q-85 -115 -186.5 -168t-240.5 -53q-124 0 -227.5 59.5t-163 158t-59.5 210.5q0 86 29 153t103.5 134t211.5 144q-88 109 -125 186.5t-37 139.5q0 88 43.5 164t120.5 121.5t174 45.5q96 0 171 -44t116 -117.5t41 -158.5
q0 -103 -79.5 -197t-236.5 -172l326 -393q26 49 40.5 84t35.5 94l34 93l127 -27l-15 -44q-36 -110 -60 -168.5t-68 -132.5q4 -3 79.5 -78.5t160.5 -145.5zM575 894q137 69 195.5 135t58.5 147q0 55 -25.5 101t-69.5 72.5t-98 26.5q-55 0 -103.5 -27.5t-75.5 -73.5t-27 -97
q0 -53 29.5 -117.5t115.5 -166.5zM902 292q-70 74 -203.5 236t-172.5 213q-102 -55 -161.5 -103.5t-87 -104.5t-27.5 -130q0 -72 44 -145t118 -120.5t159 -47.5q96 0 180 49.5t151 152.5z" />
    <glyph glyph-name="quotesingle" unicode="'" horiz-adv-x="347" 
d="M220 959h-90l-30 268v239h147v-239z" />
    <glyph glyph-name="parenleft" unicode="(" horiz-adv-x="682" 
d="M287 521q0 -246 77 -487.5t230 -463.5h-96q-175 233 -260.5 468.5t-85.5 483.5q0 257 83.5 484.5t262.5 484.5h96q-152 -242 -229.5 -489t-77.5 -481z" />
    <glyph glyph-name="parenright" unicode=")" horiz-adv-x="682" 
d="M530 522q0 -248 -85.5 -483.5t-260.5 -468.5h-96q153 222 230 463.5t77 487.5q0 234 -77.5 481t-229.5 489h96q179 -257 262.5 -484.5t83.5 -484.5z" />
    <glyph glyph-name="asterisk" unicode="*" horiz-adv-x="797" 
d="M453 1491l-5 -132l-14 -140l120 55l126 49l35 -104l-127 -37l-125 -29l89 -100l83 -105l-88 -65l-76 110l-72 117l-66 -116l-73 -111l-90 65l81 104l89 101l-133 30l-125 36l37 104l124 -49l119 -55l-14 139l-6 133h111z" />
    <glyph glyph-name="plus" unicode="+" horiz-adv-x="1148" 
d="M621 768h387v-94h-387v-430h-94v430h-387v94h387v429h94v-429z" />
    <glyph glyph-name="comma" unicode="," horiz-adv-x="569" 
d="M241 -272l-54 71q38 29 56.5 52.5t26 56.5t8.5 92h-81v185h175v-193q0 -93 -32.5 -155t-98.5 -109z" />
    <glyph glyph-name="hyphen" unicode="-" horiz-adv-x="682" 
d="M74 467v125h534v-125h-534z" />
    <glyph glyph-name="period" unicode="." horiz-adv-x="569" 
d="M197 0v185h175v-185h-175z" />
    <glyph glyph-name="slash" unicode="/" horiz-adv-x="569" 
d="M96 -37h-96l475 1528h94z" />
    <glyph glyph-name="zero" unicode="0" 
d="M104 695q0 382 110.5 576.5t357.5 194.5q153 0 255 -74t155 -239t53 -434q0 -381 -116.5 -562.5t-346.5 -181.5q-468 0 -468 720zM570 1362q-145 0 -219.5 -101t-94.5 -238t-20 -313q0 -197 29 -334.5t104 -217t207 -79.5q166 0 246.5 153t80.5 489q0 231 -36 371.5
t-109 205t-188 64.5z" />
    <glyph glyph-name="one" unicode="1" 
d="M607 0v1232q-80 -83 -168 -140.5t-204 -102.5v111q294 139 411 366h85v-1466h-124z" />
    <glyph glyph-name="two" unicode="2" 
d="M78 0q10 100 45 178t120.5 164.5t245.5 203.5q163 119 248 199.5t120 152t35 159.5q0 93 -41 162t-114 106t-166 37q-288 0 -334 -318l-126 17q34 205 154 305t314 100q129 0 230.5 -53.5t158 -146t56.5 -205.5q0 -99 -37 -181.5t-114 -162.5t-209 -180l-77 -58
q-122 -91 -182.5 -141.5t-103.5 -103t-69 -115.5h792v-119h-946z" />
    <glyph glyph-name="three" unicode="3" 
d="M1036 410q0 -121 -60 -220.5t-165 -157t-235 -57.5q-200 0 -317.5 95.5t-158.5 300.5l125 18q32 -158 117.5 -234t229.5 -76q93 0 168.5 42t119.5 120.5t44 184.5q0 139 -85 218.5t-243 79.5h-131l14 102q191 0 291.5 70.5t100.5 205.5q0 75 -33.5 134t-98 92.5
t-154.5 33.5q-126 0 -209.5 -74t-111.5 -214l-123 24q46 183 158 275.5t284 92.5q124 0 219 -47t147 -129.5t52 -185.5q0 -106 -59.5 -188t-171.5 -128v-4q86 -17 150.5 -67t100 -129t35.5 -178z" />
    <glyph glyph-name="four" unicode="4" 
d="M842 475h200v-110h-200v-365h-124v365h-667v112l691 989h100v-991zM718 1257h-4l-544 -782h548v782z" />
    <glyph glyph-name="five" unicode="5" 
d="M367 1334l-93 -503q78 62 155.5 87.5t166.5 25.5q131 0 233 -61t158.5 -166.5t56.5 -235.5q0 -154 -65.5 -269t-178.5 -176t-251 -61q-172 0 -285 96t-160 291l127 15q31 -147 115.5 -222.5t207.5 -75.5q104 0 185 46t127 137.5t46 222.5q0 103 -42 184t-115 126t-164 45
q-102 0 -182 -38t-169 -130l-104 14l138 760h705v-112h-612z" />
    <glyph glyph-name="six" unicode="6" 
d="M603 1362q-197 0 -287 -171t-91 -470l4 -4q68 101 163 153t207 52q133 0 233 -57t154 -159t54 -233q0 -137 -58 -250.5t-162.5 -180.5t-237.5 -67q-140 0 -249 68.5t-174 225.5t-65 412q0 394 131 589.5t382 195.5q160 0 262 -87t139 -251l-125 -14q-30 127 -100 187.5
t-180 60.5zM590 818q-90 0 -169 -43t-125 -121.5t-46 -179.5q0 -115 39 -204.5t115 -140t182 -50.5q92 0 165.5 50.5t115 141.5t41.5 206q0 104 -39.5 181t-111.5 118.5t-167 41.5z" />
    <glyph glyph-name="seven" unicode="7" 
d="M479 0h-135q18 285 76.5 508t167.5 420.5t285 405.5h-758v112h915v-92q-176 -187 -291.5 -390t-179 -439.5t-80.5 -524.5z" />
    <glyph glyph-name="eight" unicode="8" 
d="M1042 395q0 -120 -58 -215.5t-165 -150t-250 -54.5q-147 0 -254 54.5t-163 151t-56 219.5q0 133 72.5 236.5t196.5 151.5q-102 43 -155.5 123.5t-53.5 189.5q0 102 53 185.5t147.5 131.5t212.5 48q119 0 213.5 -46.5t147.5 -129.5t53 -189q0 -102 -54 -183.5t-155 -129.5
q126 -47 197 -151t71 -242zM567 1362q-84 0 -148.5 -34t-99.5 -94t-35 -136q0 -70 36.5 -130.5t101.5 -97t147 -36.5q80 0 145.5 36t103 96.5t37.5 131.5q0 77 -35 137t-100 93.5t-153 33.5zM565 732q-100 0 -176.5 -41.5t-118.5 -117t-42 -173.5q0 -100 42.5 -172.5
t119.5 -110.5t177 -38t178 38.5t121.5 111t43.5 171.5q0 97 -42 172.5t-120 117.5t-183 42z" />
    <glyph glyph-name="nine" unicode="9" 
d="M536 79q200 0 288.5 173t89.5 468l-4 4q-68 -101 -163 -153t-207 -52q-133 0 -233 57t-154 159t-54 233q0 136 58 250t162.5 181t237.5 67q140 0 249 -68.5t174 -225.5t65 -412q0 -394 -131 -589.5t-382 -195.5q-160 0 -262 87t-139 251l125 14q30 -127 100 -187.5
t180 -60.5zM549 623q92 0 170 43t124 121.5t46 179.5q0 115 -39 204.5t-115 140t-182 50.5q-92 0 -165.5 -50.5t-115 -141.5t-41.5 -206q0 -104 39.5 -181t111.5 -118.5t167 -41.5z" />
    <glyph glyph-name="colon" unicode=":" horiz-adv-x="569" 
d="M197 876v185h175v-185h-175zM197 0v185h175v-185h-175z" />
    <glyph glyph-name="semicolon" unicode=";" horiz-adv-x="569" 
d="M197 876v185h175v-185h-175zM241 -272l-54 71q38 29 56.5 52.5t26 56.5t8.5 92h-81v185h175v-193q0 -93 -32.5 -155t-98.5 -109z" />
    <glyph glyph-name="less" unicode="&#x3c;" horiz-adv-x="1148" 
d="M248 719l760 -395v-101l-868 455v82l868 452v-100z" />
    <glyph glyph-name="equal" unicode="=" horiz-adv-x="1148" 
d="M140 913v95h868v-95h-868zM140 426v94h868v-94h-868z" />
    <glyph glyph-name="greater" unicode="&#x3e;" horiz-adv-x="1148" 
d="M140 223v101l760 395l-760 393v100l868 -452v-82z" />
    <glyph glyph-name="question" unicode="?" horiz-adv-x="1024" 
d="M422 420q0 97 18.5 160t58 112t116.5 119q72 65 109.5 109.5t53 86t15.5 93.5q0 84 -37 147t-100 96t-139 33q-236 0 -304 -299l-135 23q41 191 155 291t292 100q125 0 217.5 -53.5t141 -142t48.5 -191.5q0 -102 -53.5 -187t-169.5 -191q-77 -70 -108.5 -111t-41.5 -85.5
t-10 -131.5v-36h-127v58zM400 0v185h175v-185h-175z" />
    <glyph glyph-name="at" unicode="@" horiz-adv-x="1808" 
d="M912 -289q-259 0 -448 100t-290.5 293t-101.5 467q0 255 108.5 465t310.5 332.5t471 122.5q213 0 390 -91.5t280.5 -257.5t103.5 -379q0 -183 -65.5 -336t-177.5 -241.5t-245 -88.5q-83 0 -114 37t-31 98q0 13 1.5 29t4.5 29l-8 1q-75 -92 -161 -143t-177 -51
q-109 0 -187 52t-118.5 147.5t-40.5 222.5q0 165 66.5 306t184.5 225.5t259 84.5q103 0 180.5 -47.5t124.5 -144.5l35 167h117l-170 -790q-10 -46 -10 -76q0 -27 13.5 -40t36.5 -13q110 0 197 79t135 210.5t48 282.5q0 187 -84.5 331.5t-238 224.5t-354.5 80
q-250 0 -427 -115t-266.5 -304.5t-89.5 -410.5q0 -253 89 -424.5t254 -256.5t395 -85q150 0 287 31t237 86l40 -82q-108 -58 -256.5 -92.5t-307.5 -34.5zM927 1037q-99 0 -187 -68t-141.5 -186.5t-53.5 -261.5q0 -156 59.5 -238t162.5 -82q117 0 212.5 82.5t150.5 213
t55 265.5q0 82 -33 144.5t-92 96.5t-133 34z" />
    <glyph glyph-name="A" unicode="A" horiz-adv-x="1323" 
d="M1165 0l-182 465h-661l-172 -465h-146l561 1466h160l594 -1466h-154zM535 1038l-172 -458h575l-178 452q-59 147 -115 328h-4q-17 -62 -45.5 -149.5t-60.5 -172.5z" />
    <glyph glyph-name="B" unicode="B" horiz-adv-x="1313" 
d="M1142 1094q0 -215 -211 -322q152 -50 216 -140.5t64 -218.5q0 -117 -55.5 -211.5t-158.5 -148t-239 -53.5h-584v1466h523q142 0 242 -44.5t151.5 -128t51.5 -199.5zM1000 1088q0 126 -77 189.5t-250 63.5h-360v-520h401q86 0 151 33t100 93.5t35 140.5zM1066 412
q0 88 -39 152.5t-111 99t-168 34.5h-435v-573h430q155 0 239 76.5t84 210.5z" />
    <glyph glyph-name="C" unicode="C" horiz-adv-x="1457" 
d="M771 1372q-152 0 -270.5 -80t-183 -222.5t-64.5 -324.5q0 -193 60 -340t175.5 -229t276.5 -82q176 0 297.5 95.5t169.5 275.5l135 -33q-40 -149 -125 -251t-205 -154t-265 -52q-206 0 -355.5 93t-229 266t-79.5 409q0 222 83.5 391.5t235 263t348.5 93.5
q213 0 358.5 -101t206.5 -292l-135 -33q-51 151 -161.5 229t-272.5 78z" />
    <glyph glyph-name="D" unicode="D" horiz-adv-x="1434" 
d="M1326 746q0 -248 -77.5 -415t-218.5 -249t-338 -82h-518v1466h514q205 0 348 -89t216.5 -251t73.5 -380zM1181 750q0 282 -124 436.5t-385 154.5h-359v-1216h359q175 0 287 64.5t167 202t55 358.5z" />
    <glyph glyph-name="E" unicode="E" horiz-adv-x="1192" 
d="M313 1341v-522h691v-125h-691v-569h781v-125h-920v1466h885v-125h-746z" />
    <glyph glyph-name="F" unicode="F" horiz-adv-x="1105" 
d="M313 1341v-526h620v-125h-620v-690h-139v1466h856v-125h-717z" />
    <glyph glyph-name="G" unicode="G" horiz-adv-x="1532" 
d="M774 1372q-155 0 -273 -78.5t-183 -224t-65 -340.5q0 -199 71.5 -342.5t194.5 -218t273 -74.5q275 0 469 154v358h-465v125h602v-545q-104 -80 -197.5 -126t-191.5 -65.5t-220 -19.5q-195 0 -349.5 90t-243 258.5t-88.5 396.5q0 224 84.5 399.5t234.5 273.5t340 98
q243 0 386.5 -103t218.5 -315l-129 -41q-56 174 -170.5 257t-298.5 83z" />
    <glyph glyph-name="H" unicode="H" horiz-adv-x="1421" 
d="M1108 842v624h139v-1466h-139v717h-795v-717h-139v1466h139v-624h795z" />
    <glyph glyph-name="I" unicode="I" horiz-adv-x="487" 
d="M174 0v1466h139v-1466h-139z" />
    <glyph glyph-name="J" unicode="J" horiz-adv-x="977" 
d="M412 -25q-354 0 -367 428l130 15q8 -176 68.5 -250t181.5 -74q123 0 184 78t61 238v1056h139v-1059q0 -210 -94 -321t-303 -111z" />
    <glyph glyph-name="K" unicode="K" horiz-adv-x="1246" 
d="M1038 1466h176l-566 -592l593 -874h-169l-519 785l-240 -242v-543h-139v1466h139v-761z" />
    <glyph glyph-name="L" unicode="L" horiz-adv-x="1088" 
d="M1013 125v-125h-839v1466h139v-1341h700z" />
    <glyph glyph-name="M" unicode="M" horiz-adv-x="1690" 
d="M1309 1466h207v-1466h-127v1323h-6l-483 -1323h-116l-477 1323h-6v-1323h-127v1466h207l461 -1277z" />
    <glyph glyph-name="N" unicode="N" horiz-adv-x="1423" 
d="M1121 214v1252h128v-1466h-149l-794 1245h-4v-1245h-128v1466h140l800 -1252h7z" />
    <glyph glyph-name="O" unicode="O" horiz-adv-x="1584" 
d="M108 731q0 229 88 401t244.5 265.5t351.5 93.5q197 0 352.5 -93t243.5 -265t88 -400q0 -225 -88.5 -397.5t-244.5 -266.5t-351 -94q-194 0 -349.5 93t-245 264.5t-89.5 398.5zM790 1372q-152 0 -275 -76t-192.5 -222t-69.5 -347q0 -205 75 -348t198 -214t264 -71
q154 0 277 75.5t193.5 219.5t70.5 340t-69.5 342t-192 223.5t-279.5 77.5z" />
    <glyph glyph-name="P" unicode="P" horiz-adv-x="1235" 
d="M1147 1047q0 -124 -57 -221t-162 -151t-245 -54h-370v-621h-139v1466h504q142 0 247.5 -49t163.5 -143.5t58 -226.5zM1002 1044q0 147 -86.5 222t-271.5 75h-331v-595h330q173 0 266 76t93 222z" />
    <glyph glyph-name="Q" unicode="Q" horiz-adv-x="1584" 
d="M108 731q0 229 88 401t243.5 265.5t352.5 93.5t352.5 -93t243.5 -265t88 -400q0 -184 -60 -333.5t-169 -251.5q122 -87 254 -148l-38 -96q-63 21 -144 66.5t-163 106.5q-161 -102 -364 -102q-194 0 -349.5 93t-245 264.5t-89.5 398.5zM790 1372q-154 0 -276 -76
t-191.5 -223.5t-69.5 -345.5q0 -205 75 -348t198 -214t264 -71t255 63q-59 42 -117 73t-129 53l31 102q84 -18 163 -59.5t147 -100.5q90 83 140.5 211.5t50.5 292.5q0 196 -69.5 342t-192 223.5t-279.5 77.5z" />
    <glyph glyph-name="R" unicode="R" horiz-adv-x="1296" 
d="M1178 1071q0 -159 -91 -258t-261 -129v-6q42 -12 79.5 -46t83.5 -108t110 -206l154 -318h-155l-115 245q-78 165 -137.5 251t-132 124.5t-182.5 38.5h-218v-659h-139v1466h535q147 0 252.5 -46t161 -134.5t55.5 -214.5zM1032 1065q0 140 -82 208t-249 68h-388v-557h381
q164 0 251 71t87 210z" />
    <glyph glyph-name="S" unicode="S" horiz-adv-x="1251" 
d="M626 1372q-99 0 -176.5 -33.5t-119.5 -92t-42 -134.5q0 -108 78 -175t252 -102q182 -37 295.5 -85t175 -130t61.5 -213q0 -119 -60.5 -217.5t-177.5 -156.5t-280 -58q-153 0 -270 58.5t-186 163.5t-86 243l134 21v-1q19 -113 73.5 -195.5t138 -126.5t187.5 -44
q113 0 201 37t137.5 105.5t49.5 160.5q0 76 -34.5 130t-124.5 96t-254 73q-162 30 -260.5 83.5t-143.5 132.5t-45 188q0 110 58 200t164 140.5t244 50.5q232 0 357 -106t135 -306l-131 -14q-10 151 -100.5 229t-249.5 78z" />
    <glyph glyph-name="T" unicode="T" 
d="M639 1341v-1341h-139v1341h-448v125h1035v-125h-448z" />
    <glyph glyph-name="U" unicode="U" horiz-adv-x="1424" 
d="M714 94q199 0 302 108t103 313v951h139v-947q0 -268 -137 -406t-405 -138q-279 0 -414.5 135t-135.5 408v948h139v-949q0 -218 103.5 -320.5t305.5 -102.5z" />
    <glyph glyph-name="V" unicode="V" horiz-adv-x="1251" 
d="M625 150l477 1316h137l-547 -1466h-143l-537 1466h148l461 -1316h4z" />
    <glyph glyph-name="W" unicode="W" horiz-adv-x="1781" 
d="M477 197l328 1269h170l328 -1261h4l315 1258l2 3h132l-383 -1466h-137l-340 1308l-2 3h-3l-348 -1311h-137l-381 1466h141l307 -1269h4z" />
    <glyph glyph-name="X" unicode="X" horiz-adv-x="1251" 
d="M1057 1466h145l-486 -696l527 -770h-168l-444 669l-457 -669h-166l550 774l-470 692h164l388 -595z" />
    <glyph glyph-name="Y" unicode="Y" horiz-adv-x="1221" 
d="M1056 1466h153l-538 -833v-633h-139v633l-520 833h159l439 -709z" />
    <glyph glyph-name="Z" unicode="Z" horiz-adv-x="1199" 
d="M201 125h948v-125h-1101v129l907 1212h-833v125h996v-120z" />
    <glyph glyph-name="bracketleft" unicode="[" horiz-adv-x="682" 
d="M283 1362v-1665h346v-103h-471v1872h471v-104h-346z" />
    <glyph glyph-name="backslash" unicode="\" horiz-adv-x="569" 
d="M569 -37h-96l-473 1528h94z" />
    <glyph glyph-name="bracketright" unicode="]" horiz-adv-x="682" 
d="M53 -406v104h346v1664h-346v104h471v-1872h-471z" />
    <glyph glyph-name="asciicircum" unicode="^" horiz-adv-x="960" 
d="M766 666l-286 668l-286 -668h-102l354 800h68l354 -800h-102z" />
    <glyph glyph-name="underscore" unicode="_" horiz-adv-x="1024" 
d="M-12 -256v102h1048v-102h-1048z" />
    <glyph glyph-name="grave" unicode="`" horiz-adv-x="682" 
d="M352 1200l-225 266h174l154 -266h-103z" />
    <glyph glyph-name="a" unicode="a" horiz-adv-x="1081" 
d="M969 0h-133q-27 64 -34 160l-3 1q-72 -94 -162.5 -140t-215.5 -46q-97 0 -170 37.5t-113 104.5t-40 153q0 92 39 156.5t125 107t227 63.5q209 31 304 67v39q0 99 -22 157.5t-79.5 87t-163.5 28.5q-230 0 -276 -208l-127 18q32 147 136 223t275 76q132 0 216.5 -35
t127 -113.5t42.5 -209.5v-398q0 -137 9.5 -201.5t37.5 -127.5zM477 485q-132 -25 -189 -76t-57 -139q0 -89 58.5 -139.5t164.5 -50.5q39 0 89.5 15t96 42t72.5 60q35 43 51 74.5t23 84.5t7 152v55q-27 -13 -108 -33.5t-208 -44.5z" />
    <glyph glyph-name="b" unicode="b" horiz-adv-x="1132" 
d="M262 889h4q71 103 157.5 149.5t190.5 46.5q141 0 240.5 -71t151 -194.5t51.5 -279.5q0 -171 -53 -298t-152.5 -197t-234.5 -70q-114 0 -200.5 45t-150.5 142h-4v-162h-123v1466h123v-577zM608 976q-115 0 -193 -61.5t-115.5 -166t-37.5 -233.5q0 -135 42.5 -232t119 -148
t178.5 -51q92 0 165.5 56t116 159t42.5 238q0 131 -40.5 230.5t-112.5 154t-165 54.5z" />
    <glyph glyph-name="c" unicode="c" horiz-adv-x="1064" 
d="M541 976q-95 0 -171 -50t-119 -150.5t-43 -246.5q0 -132 40.5 -232.5t117 -156.5t181.5 -56q119 0 199.5 67.5t120.5 214.5l129 -24q-50 -184 -163 -275.5t-292 -91.5q-144 0 -249.5 71t-161 197t-55.5 289q0 165 58 290.5t165 194t249 68.5q174 0 279.5 -81.5
t154.5 -241.5l-129 -24q-65 238 -311 238z" />
    <glyph glyph-name="d" unicode="d" horiz-adv-x="1132" 
d="M993 0h-121v167h-4q-53 -91 -139 -141.5t-197 -50.5q-134 0 -237.5 69.5t-161.5 195.5t-58 290q0 166 56.5 292t158.5 194.5t236 68.5q217 0 332 -180h6v561h129v-1466zM536 976q-99 0 -174 -57.5t-114.5 -158.5t-39.5 -231q0 -134 42 -235t117 -155.5t170 -54.5
q105 0 180.5 53t116 152t40.5 234q0 140 -42 242t-118 156.5t-178 54.5z" />
    <glyph glyph-name="e" unicode="e" horiz-adv-x="1081" 
d="M561 84q107 0 185.5 57.5t113.5 159.5l127 -20q-51 -149 -164 -227.5t-271 -78.5q-146 0 -253.5 67t-165.5 191t-58 289q0 173 58.5 300t165.5 195t251 68q160 0 262.5 -75t149.5 -205t47 -299h-801q4 -131 48.5 -226.5t123 -145.5t181.5 -50zM548 977q-92 0 -164 -43
t-116.5 -124.5t-55.5 -195.5h664q-18 180 -101 271.5t-227 91.5z" />
    <glyph glyph-name="f" unicode="f" horiz-adv-x="526" 
d="M467 1379q-71 0 -105.5 -24t-44.5 -63t-10 -100v-131h205v-105h-205v-956h-129v956h-160v105h160v143q0 145 68 216t204 71q44 0 83.5 -5.5t87.5 -15.5l-27 -109q-30 8 -63 13t-64 5z" />
    <glyph glyph-name="g" unicode="g" horiz-adv-x="1126" 
d="M987 1061v-979q0 -257 -111 -384.5t-349 -127.5q-171 0 -273 76.5t-117 216.5l125 -19q19 -83 85 -124.5t177 -41.5q126 0 198.5 44.5t104 139.5t31.5 254v53h-3q-116 -181 -329 -181q-134 0 -236.5 69t-158.5 193t-56 285t56.5 286t158.5 194.5t235 69.5
q113 0 197.5 -49t137.5 -136h6v161h121zM530 977q-97 0 -170 -55.5t-112.5 -155t-39.5 -227.5q0 -134 40.5 -234.5t114 -154.5t171.5 -54q103 0 178.5 54.5t115.5 154.5t40 233t-40.5 232t-117 153t-180.5 54z" />
    <glyph glyph-name="h" unicode="h" horiz-adv-x="1096" 
d="M597 1085q174 0 269 -93.5t95 -265.5v-726h-129v708q0 128 -65 196.5t-187 68.5q-92 0 -164.5 -45.5t-110.5 -122.5q-37 -74 -37 -212v-593h-129v1466h129v-565q51 87 139.5 135.5t189.5 48.5z" />
    <glyph glyph-name="i" unicode="i" horiz-adv-x="407" 
d="M139 1288v178h129v-178h-129zM139 0v1061h129v-1061h-129z" />
    <glyph glyph-name="j" unicode="j" horiz-adv-x="416" 
d="M277 1278h-129v188h129v-188zM277 -113q0 -110 -21.5 -179t-71.5 -103.5t-135 -34.5q-28 0 -61.5 5.5t-64.5 16.5l24 109q36 -12 78 -12q51 0 77 16t36 57.5t10 125.5v1173h129v-1174z" />
    <glyph glyph-name="k" unicode="k" horiz-adv-x="1006" 
d="M287 586l492 475h166l-416 -401l449 -660h-162l-380 578l-149 -139v-439h-129v1466h129v-880z" />
    <glyph glyph-name="l" unicode="l" horiz-adv-x="407" 
d="M139 0v1466h129v-1466h-129z" />
    <glyph glyph-name="m" unicode="m" horiz-adv-x="1653" 
d="M1199 1085q95 0 167 -39.5t112 -119t40 -194.5v-732h-125v711q0 144 -54 203t-167 59q-140 0 -210.5 -95t-70.5 -279v-599h-125v689q0 109 -24 171t-68.5 87.5t-112.5 25.5q-93 0 -160.5 -52t-102 -142.5t-34.5 -204.5v-574h-125v1061h121v-154h4q116 178 321 178
q104 0 174 -42.5t108 -133.5q70 97 150.5 136.5t181.5 39.5z" />
    <glyph glyph-name="n" unicode="n" horiz-adv-x="1096" 
d="M832 708q0 128 -65 196.5t-187 68.5q-92 0 -164.5 -45.5t-110.5 -122.5q-37 -73 -37 -212v-593h-129v1061h121v-169q54 92 142 142.5t195 50.5q174 0 269 -93.5t95 -265.5v-726h-129v708z" />
    <glyph glyph-name="o" unicode="o" horiz-adv-x="1102" 
d="M75 530q0 178 60 303t167 188.5t248 63.5q143 0 250.5 -63.5t167 -188t59.5 -301.5t-59 -302.5t-166.5 -190t-251.5 -64.5q-141 0 -248.5 64t-167 190t-59.5 301zM548 976q-99 0 -175.5 -50t-120.5 -150.5t-44 -245.5q0 -147 43.5 -247t120 -149.5t178.5 -49.5
q101 0 178.5 49.5t121.5 150t44 248.5q0 142 -43.5 241.5t-121.5 151t-181 51.5z" />
    <glyph glyph-name="p" unicode="p" horiz-adv-x="1132" 
d="M272 156h-4v-562h-129v1467h121v-174l5 1q71 105 160.5 151t200.5 46q133 0 230.5 -70.5t149 -194.5t51.5 -280q0 -169 -53 -296.5t-152.5 -198t-234.5 -70.5q-115 0 -198 42.5t-147 138.5zM607 976q-112 0 -189.5 -59.5t-116.5 -164t-39 -239.5q0 -134 42.5 -231
t119 -147.5t178.5 -50.5q98 0 171 55.5t112 158t39 240.5q0 131 -39 230.5t-111 153.5t-167 54z" />
    <glyph glyph-name="q" unicode="q" horiz-adv-x="1132" 
d="M993 1061v-1467h-129v564h-4q-67 -98 -149 -140.5t-195 -42.5q-141 0 -240.5 74.5t-150 203t-50.5 287.5q0 153 53 277t152 196t230 72q109 0 202 -48t156 -151h4v175h121zM520 976q-93 0 -164 -54.5t-110.5 -156t-39.5 -237.5q0 -132 41.5 -232.5t114.5 -156t166 -55.5
q102 0 179.5 51.5t120 149t42.5 230.5q0 135 -39.5 239t-118.5 163t-192 59z" />
    <glyph glyph-name="r" unicode="r" horiz-adv-x="688" 
d="M520 956q-81 0 -138 -49t-85.5 -136.5t-28.5 -202.5v-568h-129v1061h121v-169l2 1q50 98 112 145t152 47q43 0 80 -9.5t84 -33.5l-43 -120q-70 34 -127 34z" />
    <glyph glyph-name="s" unicode="s" horiz-adv-x="961" 
d="M460 976q-68 0 -121 -21t-82.5 -59.5t-29.5 -90.5q0 -55 24.5 -90.5t84 -60t167.5 -43.5q135 -25 216.5 -64t119.5 -99t38 -149q0 -93 -49.5 -166.5t-138.5 -115.5t-203 -42q-172 0 -276 77t-134 229l127 20q46 -217 282 -217q80 0 138.5 25.5t90 71t31.5 103.5
q0 63 -31 102t-97 63t-182 45q-168 29 -250.5 100.5t-82.5 197.5q0 84 44 150.5t125 104.5t189 38q154 0 252.5 -65.5t130.5 -192.5l-126 -18q-18 80 -84.5 123.5t-172.5 43.5z" />
    <glyph glyph-name="t" unicode="t" horiz-adv-x="596" 
d="M522 1061v-105h-200v-696q0 -68 11.5 -102.5t36 -46t68.5 -11.5q45 0 90 13l18 -111q-85 -14 -130 -14q-94 0 -142 29t-64.5 88.5t-16.5 165.5v685h-152v105h152v254l129 92v-346h200z" />
    <glyph glyph-name="u" unicode="u" horiz-adv-x="1096" 
d="M509 88q151 0 234.5 98t83.5 282v593h129v-1061h-121v170q-55 -93 -143.5 -144t-194.5 -51q-175 0 -268.5 94.5t-93.5 265.5v726h129v-709q0 -127 61.5 -195.5t183.5 -68.5z" />
    <glyph glyph-name="v" unicode="v" horiz-adv-x="976" 
d="M828 1061h133l-416 -1061h-114l-416 1061h133l340 -907z" />
    <glyph glyph-name="w" unicode="w" horiz-adv-x="1440" 
d="M423 156l240 905h115l242 -905h4l269 905h129l-341 -1061h-127l-232 872h-4l-229 -872h-129l-342 1061h131l270 -905h4z" />
    <glyph glyph-name="x" unicode="x" horiz-adv-x="972" 
d="M487 656l274 405h156l-359 -496l394 -565h-156l-310 461l-310 -461h-156l394 553l-359 508h156l273 -404z" />
    <glyph glyph-name="y" unicode="y" horiz-adv-x="958" 
d="M483 147h4q30 102 98 288l231 626h127l-456 -1216q-40 -106 -81 -165.5t-89.5 -84.5t-115.5 -25q-66 0 -128 16l27 109q18 -6 41.5 -9t42.5 -3q51 0 83 17t56.5 58t53.5 119l42 117l-399 1067h137l227 -618q55 -151 99 -296z" />
    <glyph glyph-name="z" unicode="z" horiz-adv-x="929" 
d="M203 109h681v-109h-834v109l634 847h-593v105h760v-84z" />
    <glyph glyph-name="braceleft" unicode="{" horiz-adv-x="682" 
d="M408 190v-286q0 -81 15.5 -129t51 -70t97.5 -22h14v-113h-19q-104 0 -164 37.5t-85 107t-25 173.5v301q0 67 -12 123.5t-54.5 101.5t-126.5 51v132q84 6 126.5 50.5t54.5 101t12 123.5v301q0 104 25 173.5t85 107t164 37.5h19v-113h-14q-62 0 -97.5 -22t-51 -70
t-15.5 -129v-286q0 -270 -201 -341q201 -71 201 -340z" />
    <glyph glyph-name="bar" unicode="|" horiz-adv-x="455" 
d="M279 -406h-103v1872h103v-1872z" />
    <glyph glyph-name="braceright" unicode="}" horiz-adv-x="682" 
d="M274 871v286q0 81 -15.5 129t-51 70t-97.5 22h-14v113h19q104 0 164 -37.5t85 -107t25 -173.5v-301q0 -67 12 -123.5t54.5 -101t126.5 -50.5v-132q-84 -6 -126.5 -51t-54.5 -101.5t-12 -123.5v-301q0 -104 -25 -173.5t-85 -107t-164 -37.5h-19v113h14q62 0 97.5 22t51 70
t15.5 129v286q0 269 201 340q-201 71 -201 341z" />
    <glyph glyph-name="asciitilde" unicode="~" horiz-adv-x="1148" 
d="M782 592q-52 0 -106.5 21.5t-130.5 67.5q-62 37 -101 54t-73 17q-45 0 -105.5 -34.5t-125.5 -99.5v114q70 63 123.5 89.5t104.5 26.5q58 0 115 -22.5t130 -68.5q58 -36 96 -52.5t73 -16.5q48 0 107 36.5t119 100.5v-121q-74 -65 -123 -88.5t-103 -23.5z" />
    <glyph glyph-name="Euro" unicode="&#x20ac;" 
d="M781 79q82 0 159 21t134 61v-131q-59 -27 -134 -41t-152 -14q-179 0 -312 68.5t-214.5 200t-105.5 317.5h-130l19 94h101q-1 23 -1 73q0 45 3 88h-122l19 94h116q30 166 115.5 291.5t218.5 195t303 69.5q176 0 308 -70l-30 -114q-54 39 -126.5 59.5t-155.5 20.5
q-127 0 -230.5 -52t-173.5 -153.5t-97 -246.5h702l-19 -94h-696q-3 -42 -3 -85q0 -26 2 -76h663l-19 -94h-634q34 -227 159.5 -354.5t332.5 -127.5z" />
    <glyph glyph-name="quotesinglbase" unicode="&#x201a;" horiz-adv-x="455" 
d="M184 -272l-54 71q38 29 56.5 52.5t26 56.5t8.5 92h-81v185h175v-193q0 -93 -32.5 -155t-98.5 -109z" />
    <glyph glyph-name="florin" unicode="&#x192;" 
d="M855 1354q-70 0 -107 -44t-58 -138l-35 -153h223l-22 -92h-219l-238 -1097q-29 -133 -100.5 -196.5t-175.5 -63.5q-49 0 -90 8t-89 23l23 101q57 -20 143 -20q52 0 83.5 17t53 60.5t39.5 127.5l224 1040h-198l18 92h198l44 183q21 88 52 144t84.5 88t137.5 32q42 0 93 -9
t89 -24l-21 -99q-82 20 -152 20z" />
    <glyph glyph-name="quotedblbase" unicode="&#x201e;" horiz-adv-x="797" 
d="M184 -272l-54 71q38 29 56.5 52.5t26 56.5t8.5 92h-81v185h175v-193q0 -93 -32.5 -155t-98.5 -109zM526 -272l-54 71q38 29 56.5 52.5t26 56.5t8.5 92h-81v185h175v-193q0 -93 -32.5 -155t-98.5 -109z" />
    <glyph glyph-name="ellipsis" unicode="&#x2026;" horiz-adv-x="2048" 
d="M254 0v185h175v-185h-175zM937 0v185h175v-185h-175zM1620 0v185h175v-185h-175z" />
    <glyph glyph-name="dagger" unicode="&#x2020;" horiz-adv-x="1109" 
d="M1019 1021v-110h-400v-1239h-129v1239h-400v110h400v445h129v-445h400z" />
    <glyph glyph-name="daggerdbl" unicode="&#x2021;" horiz-adv-x="1109" 
d="M1019 1069v-111h-400v-778h400v-111h-400v-397h-129v397h-400v111h400v778h-400v111h400v397h129v-397h400z" />
    <glyph glyph-name="circumflex" unicode="&#x2c6;" horiz-adv-x="682" 
d="M480 1200l-139 184l-139 -184h-132l197 266h148l197 -266h-132z" />
    <glyph glyph-name="perthousand" unicode="&#x2030;" horiz-adv-x="2542" 
d="M98 1087q0 125 40.5 216t114 139.5t170.5 48.5q98 0 172 -49t115 -140.5t41 -214.5q0 -124 -41 -215t-115.5 -139t-171.5 -48q-98 0 -171.5 48t-113.5 139t-40 215zM494 -53h-105l857 1544h104zM422 1395q-98 0 -151 -77t-53 -231q0 -148 52.5 -227t152.5 -79
q101 0 154.5 80t53.5 226q0 150 -53.5 229t-155.5 79zM991 377q0 125 40.5 216t114 139.5t170.5 48.5q98 0 172 -49t115 -140.5t41 -214.5q0 -124 -41 -215t-115.5 -139t-171.5 -48q-98 0 -171.5 48t-113.5 139t-40 215zM1791 377q0 125 40.5 216t114 139.5t170.5 48.5
q98 0 172 -49t115 -140.5t41 -214.5q0 -124 -41 -215t-115.5 -139t-171.5 -48q-98 0 -171.5 48t-113.5 139t-40 215zM1315 685q-98 0 -151 -77t-53 -231q0 -148 52.5 -227t152.5 -79q101 0 154.5 80t53.5 226q0 150 -53.5 229t-155.5 79zM2115 685q-98 0 -151 -77t-53 -231
q0 -148 52.5 -227t152.5 -79q101 0 154.5 80t53.5 226q0 150 -53.5 229t-155.5 79z" />
    <glyph glyph-name="Scaron" unicode="&#x160;" horiz-adv-x="1251" 
d="M626 1372q-99 0 -176.5 -33.5t-119.5 -92t-42 -134.5q0 -108 78 -175t252 -102q182 -37 295.5 -85t175 -130t61.5 -213q0 -119 -60.5 -217.5t-177.5 -156.5t-280 -58q-153 0 -270 58.5t-186 163.5t-86 243l134 21v-1q19 -113 73.5 -195.5t138 -126.5t187.5 -44
q113 0 201 37t137.5 105.5t49.5 160.5q0 76 -34.5 130t-124.5 96t-254 73q-162 30 -260.5 83.5t-143.5 132.5t-45 188q0 110 58 200t164 140.5t244 50.5q232 0 357 -106t135 -306l-131 -14q-10 151 -100.5 229t-249.5 78zM486 1835l139 -184l139 184h132l-197 -266h-148
l-197 266h132z" />
    <glyph glyph-name="guilsinglleft" unicode="&#x2039;" horiz-adv-x="715" 
d="M301 530l260 -458h-106l-297 458l297 449h106z" />
    <glyph glyph-name="OE" unicode="&#x152;" horiz-adv-x="2099" 
d="M1280 1341v-522h631v-125h-631v-569h721v-125h-846v260q-76 -134 -193.5 -209.5t-261.5 -75.5q-168 0 -302.5 92.5t-212 264.5t-77.5 399q0 229 76 401t211.5 265.5t304.5 93.5q145 0 262 -74.5t193 -207.5v257h811v-125h-686zM698 1372q-127 0 -228 -76t-159 -222
t-58 -347q0 -205 62.5 -347.5t164 -214t218.5 -71.5q126 0 227 64.5t161.5 206.5t60.5 364q0 214 -57 358.5t-158 214.5t-234 70z" />
    <glyph glyph-name="Zcaron" unicode="&#x17d;" horiz-adv-x="1199" 
d="M201 125h948v-125h-1101v129l907 1212h-833v125h996v-120zM465 1835l139 -184l139 184h132l-197 -266h-148l-197 266h132z" />
    <glyph glyph-name="quoteleft" unicode="&#x2018;" horiz-adv-x="455" 
d="M271 1491l54 -71q-38 -29 -56.5 -52.5t-26 -56.5t-8.5 -92h81v-185h-175v193q0 93 32.5 155t98.5 109z" />
    <glyph glyph-name="quoteright" unicode="&#x2019;" horiz-adv-x="455" 
d="M184 1009l-54 71q38 29 56.5 52.5t26 56.5t8.5 92h-81v185h175v-193q0 -93 -32.5 -155t-98.5 -109z" />
    <glyph glyph-name="quotedblleft" unicode="&#x201c;" horiz-adv-x="797" 
d="M271 1491l54 -71q-38 -28 -56.5 -52t-26 -57t-8.5 -92h81v-185h-175v193q0 91 32.5 154t98.5 110zM613 1491l54 -71q-38 -28 -56.5 -52t-26 -57t-8.5 -92h81v-185h-175v193q0 91 32.5 154t98.5 110z" />
    <glyph glyph-name="quotedblright" unicode="&#x201d;" horiz-adv-x="797" 
d="M184 1009l-54 71q38 29 56.5 52.5t26 56.5t8.5 92h-81v185h175v-193q0 -93 -32.5 -155t-98.5 -109zM526 1009l-54 71q38 29 56.5 52.5t26 56.5t8.5 92h-81v185h175v-193q0 -93 -32.5 -155t-98.5 -109z" />
    <glyph glyph-name="bullet" unicode="&#x2022;" horiz-adv-x="752" 
d="M125 718q0 68 35 125.5t94 91t124 33.5q66 0 123.5 -34.5t91.5 -92t34 -123.5q0 -67 -34 -125t-91 -92.5t-124 -34.5t-125.5 34t-93 91.5t-34.5 126.5z" />
    <glyph glyph-name="endash" unicode="&#x2013;" horiz-adv-x="1024" 
d="M-12 465v94h1048v-94h-1048z" />
    <glyph glyph-name="emdash" unicode="&#x2014;" horiz-adv-x="2048" 
d="M-12 465v94h2072v-94h-2072z" />
    <glyph glyph-name="tilde" unicode="&#x2dc;" horiz-adv-x="682" 
d="M475 1230q-34 0 -68 9t-76 31q-47 25 -72 34t-45 9q-29 0 -42.5 -19.5t-16.5 -63.5h-105q5 96 44 142t115 46q68 0 142 -40q49 -26 72.5 -34.5t44.5 -8.5q29 0 42.5 19.5t16.5 63.5h105q-4 -88 -43 -138t-114 -50z" />
    <glyph glyph-name="trademark" unicode="&#x2122;" horiz-adv-x="1584" 
d="M386 1378v-727h-100v727h-256v88h612v-88h-256zM1096 835l211 631h157v-815h-100v667h-4l-233 -667h-70l-220 667h-4v-667h-100v815h156l203 -631h4z" />
    <glyph glyph-name="scaron" unicode="&#x161;" horiz-adv-x="961" 
d="M460 976q-68 0 -121 -21t-82.5 -59.5t-29.5 -90.5q0 -55 24.5 -90.5t84 -60t167.5 -43.5q135 -25 216.5 -64t119.5 -99t38 -149q0 -93 -49.5 -166.5t-138.5 -115.5t-203 -42q-172 0 -276 77t-134 229l127 20q46 -217 282 -217q80 0 138.5 25.5t90 71t31.5 103.5
q0 63 -31 102t-97 63t-182 45q-168 29 -250.5 100.5t-82.5 197.5q0 84 44 150.5t125 104.5t189 38q154 0 252.5 -65.5t130.5 -192.5l-126 -18q-18 80 -84.5 123.5t-172.5 43.5zM354 1466l139 -184l139 184h132l-197 -266h-148l-197 266h132z" />
    <glyph glyph-name="guilsinglright" unicode="&#x203a;" horiz-adv-x="715" 
d="M557 522l-297 -450h-106l260 450l-260 457h106z" />
    <glyph glyph-name="oe" unicode="&#x153;" horiz-adv-x="1841" 
d="M1321 84q100 0 174 57.5t107 159.5l127 -20q-48 -149 -156.5 -227.5t-259.5 -78.5q-138 0 -237 66t-152 188q-52 -124 -152.5 -189t-238.5 -65q-136 0 -239.5 64t-161 189t-57.5 302q0 178 58 303t161 188.5t239 63.5q139 0 240 -65t153 -191q52 123 150.5 189.5
t234.5 66.5q219 0 329.5 -154.5t110.5 -424.5h-762q4 -131 46 -226.5t115.5 -145.5t170.5 -50zM1307 977q-87 0 -155.5 -43t-110.5 -127t-52 -193h629q-17 180 -95.5 271.5t-215.5 91.5zM531 976q-93 0 -166 -50t-115 -150.5t-42 -245.5q0 -147 41 -247t114.5 -149.5
t169.5 -49.5t169.5 49.5t115.5 150t42 248.5q0 142 -41 241.5t-115.5 151t-172.5 51.5z" />
    <glyph glyph-name="zcaron" unicode="&#x17e;" horiz-adv-x="929" 
d="M203 109h681v-109h-834v109l634 847h-593v105h760v-84zM321 1466l139 -184l139 184h132l-197 -266h-148l-197 266h132z" />
    <glyph glyph-name="Ydieresis" unicode="&#x178;" horiz-adv-x="1221" 
d="M1056 1466h153l-538 -833v-633h-139v633l-520 833h159l439 -709zM515 1591h-123v162h123v-162zM824 1591h-123v162h123v-162z" />
    <glyph glyph-name="uni00A0" unicode="&#xa0;" horiz-adv-x="537" 
 />
    <glyph glyph-name="exclamdown" unicode="&#xa1;" horiz-adv-x="682" 
d="M428 1061v-185h-175v185h175zM300 699h82l35 -775v-329h-152v329z" />
    <glyph glyph-name="cent" unicode="&#xa2;" 
d="M739 932l-249 -840q38 -8 77 -8q119 0 199.5 67.5t120.5 214.5l129 -24q-50 -184 -163 -275.5t-292 -91.5q-48 0 -103 10l-112 -378l-88 24l113 382q-132 58 -204 195t-72 324q0 165 58 290.5t165 194t249 68.5q65 0 119 -12l110 369l88 -24l-111 -372q83 -37 139 -108
t89 -176l-129 -24q-38 136 -133 194zM405 126l249 840q-47 10 -93 10q-97 0 -172.5 -50t-119 -150.5t-43.5 -246.5q0 -141 46.5 -246t132.5 -157z" />
    <glyph glyph-name="sterling" unicode="&#xa3;" 
d="M604 1362q-97 0 -167.5 -36.5t-107.5 -105t-37 -162.5q0 -67 14 -133.5t48 -155.5h357v-102h-325q12 -45 17 -79.5t5 -76.5q0 -87 -42.5 -173.5t-136.5 -187.5l4 -5q85 31 186 31q36 0 77.5 -8.5t111.5 -27.5q71 -20 120.5 -30t93.5 -10q102 0 214 62l49 -116
q-63 -36 -130.5 -53.5t-130.5 -17.5q-52 0 -102 12.5t-123 36.5q-70 23 -113 33.5t-87 10.5q-83 0 -146 -22t-132 -71l-62 125q116 103 167.5 197.5t51.5 206.5q0 44 -6.5 76t-21.5 87h-191v102h159q-58 153 -58 282q0 113 51.5 208t152 151t239.5 56q177 0 289.5 -96
t143.5 -271l-125 -22q-24 141 -104 213t-203 72z" />
    <glyph glyph-name="currency" unicode="&#xa4;" 
d="M261 965l-163 163l64 64l163 -163q51 41 114 63t131 22t130.5 -22t113.5 -63l163 163l64 -64l-163 -163q40 -51 62.5 -114t22.5 -131t-22 -131t-63 -114l163 -163l-64 -64l-163 163q-51 -41 -113.5 -63t-130.5 -22q-69 0 -131.5 22t-113.5 63l-163 -163l-64 64l163 163
q-41 51 -63 113.5t-22 131.5q0 68 22 131t63 114zM570 419q82 0 150.5 40.5t109 109.5t40.5 151t-40.5 151t-109 109.5t-150.5 40.5t-151 -40.5t-109.5 -109.5t-40.5 -151t40.5 -151t109.5 -109.5t151 -40.5z" />
    <glyph glyph-name="yen" unicode="&#xa5;" 
d="M989 1446h142l-426 -721h366v-94h-422l-12 -20v-136h434v-94h-434v-381h-131v381h-438v94h438v136l-10 20h-428v94h370l-430 721h148l419 -721z" />
    <glyph glyph-name="brokenbar" unicode="&#xa6;" horiz-adv-x="455" 
d="M279 713h-103v753h103v-753zM279 -406h-103v752h103v-752z" />
    <glyph glyph-name="section" unicode="&#xa7;" horiz-adv-x="1109" 
d="M793 147q83 -57 115.5 -122t32.5 -146q0 -86 -51 -156.5t-142.5 -111.5t-207.5 -41q-181 0 -286.5 92t-134.5 262v1l131 16q28 -139 100 -200t193 -61q90 0 151.5 28t91.5 73t30 97q0 62 -28 105t-85 78l-419 261q-79 49 -123 93.5t-63 94.5t-19 119q0 87 61 164t183 135
q-77 56 -105 117.5t-28 141.5q0 86 45 155.5t127 109t188 39.5q335 0 392 -333v-1l-131 -16q-25 130 -88.5 185t-174.5 55q-79 0 -131.5 -27t-77 -70.5t-24.5 -95.5q0 -61 25 -101.5t80 -76.5l409 -266q78 -51 120.5 -93.5t61.5 -91.5t19 -117q0 -85 -59.5 -161t-177.5 -134
zM203 629q0 -39 11 -70t42 -63.5t90 -69.5l356 -222q96 36 150 100t54 138q0 38 -11 67.5t-41.5 61t-88.5 69.5l-353 229q-98 -35 -153.5 -100t-55.5 -140z" />
    <glyph glyph-name="dieresis" unicode="&#xa8;" horiz-adv-x="682" 
d="M248 1222h-123v162h123v-162zM557 1222h-123v162h123v-162z" />
    <glyph glyph-name="copyright" unicode="&#xa9;" horiz-adv-x="1638" 
d="M61 733q0 211 105.5 384.5t280 273.5t372.5 100q209 0 383 -105t274.5 -279.5t100.5 -373.5q0 -210 -105 -384t-279.5 -274t-373.5 -100q-210 0 -384 105t-274 279.5t-100 373.5zM819 63q182 0 336 90t244 243.5t90 335.5t-90 336t-244 244.5t-336 90.5t-336 -90.5
t-244 -244.5t-90 -336t90 -335.5t244 -243.5t336 -90zM821 1078q-129 0 -200.5 -87.5t-71.5 -247.5q0 -98 33 -174t93.5 -118t141.5 -42q99 0 158.5 49t88.5 147l101 -30q-35 -120 -125.5 -189t-219.5 -69q-114 0 -200 51t-133.5 147t-47.5 226q0 132 47.5 228.5
t135.5 148.5t205 52q120 0 208 -60t122 -161l-99 -35q-25 80 -86 122t-151 42z" />
    <glyph glyph-name="ordfeminine" unicode="&#xaa;" horiz-adv-x="723" 
d="M653 764h-104q-20 59 -24 100q-50 -61 -116 -93t-143 -32q-57 0 -102.5 25t-71.5 71.5t-26 106.5q0 94 53.5 147t179.5 72q167 25 220 51v26q0 93 -37 132t-124 39q-74 0 -115.5 -33.5t-59.5 -111.5l-98 20q25 107 89.5 157t183.5 50q144 0 204.5 -60t60.5 -189v-285
q0 -61 6 -106t24 -87zM311 1078q-80 -14 -110.5 -45t-30.5 -90q0 -54 31.5 -86t84.5 -32q84 0 138 34q56 35 75.5 82t19.5 129v60q-63 -28 -208 -52z" />
    <glyph glyph-name="guillemotleft" unicode="&#xab;" 
d="M301 530l260 -458h-106l-297 458l297 449h106zM725 530l260 -458h-106l-297 458l297 449h106z" />
    <glyph glyph-name="logicalnot" unicode="&#xac;" horiz-adv-x="1148" 
d="M904 441v457h-764v95h858v-552h-94z" />
    <glyph glyph-name="uni00AD" unicode="&#xad;" horiz-adv-x="682" 
d="M74 467v125h534v-125h-534z" />
    <glyph glyph-name="registered" unicode="&#xae;" horiz-adv-x="1638" 
d="M61 733q0 211 105.5 384.5t280 273.5t372.5 100q209 0 383 -105t274.5 -279.5t100.5 -373.5q0 -210 -105 -383.5t-279.5 -274t-373.5 -100.5q-210 0 -384 105t-274 279.5t-100 373.5zM819 63q182 0 336 90t244 243.5t90 335.5t-90 336t-244 244.5t-336 90.5t-336 -90.5
t-244 -244.5t-90 -336t90 -335.5t244 -243.5t336 -90zM1134 927q0 -89 -60.5 -144t-168.5 -66l-1 -4q41 -8 76.5 -43.5t78.5 -118.5l108 -208h-121l-92 190q-32 66 -57.5 96.5t-61 41.5t-100.5 11h-103v-340h-102v803h329q136 0 205.5 -59t69.5 -159zM1024 924
q0 65 -41.5 97t-139.5 32h-211v-279h178q113 0 163.5 36t50.5 114z" />
    <glyph glyph-name="glyph140" horiz-adv-x="682" 
d="M49 1227v110h584v-110h-584z" />
    <glyph glyph-name="degree" unicode="&#xb0;" horiz-adv-x="705" 
d="M353 1491q76 0 140.5 -38t102 -102.5t37.5 -140.5t-37.5 -141t-102 -102.5t-140.5 -37.5t-140.5 37.5t-102.5 102.5t-38 141t38 140.5t102.5 102.5t140.5 38zM353 1011q54 0 99.5 26.5t72 72.5t26.5 100t-26.5 100t-72.5 72.5t-99 26.5q-54 0 -99.5 -27t-72.5 -72.5
t-27 -99.5t27 -100t72.5 -72.5t99.5 -26.5z" />
    <glyph glyph-name="plusminus" unicode="&#xb1;" horiz-adv-x="1148" 
d="M621 768h387v-94h-387v-430h-94v430h-387v94h387v429h94v-429zM140 0v94h868v-94h-868z" />
    <glyph glyph-name="uni00B2" unicode="&#xb2;" horiz-adv-x="682" 
d="M56 714v7q0 47 26 92.5t91.5 105.5t186.5 148q81 58 110.5 98t29.5 88q0 57 -39 89t-108 32q-79 0 -119.5 -32.5t-56.5 -103.5l-107 17q28 109 96 160t187 51q81 0 140 -28t89.5 -75.5t30.5 -103.5q0 -71 -36.5 -129t-123.5 -120q-120 -86 -173 -129t-71 -71h412v-96
h-565z" />
    <glyph glyph-name="uni00B3" unicode="&#xb3;" horiz-adv-x="682" 
d="M626 927q0 -69 -36 -122t-99.5 -82t-145.5 -29q-114 0 -187 51.5t-103 159.5l111 15q21 -63 63 -96.5t114 -33.5q78 0 124 39.5t46 103.5q0 59 -43.5 91.5t-127.5 32.5q-31 0 -66 -5l16 89q101 2 145 35t44 87q0 53 -38.5 82t-101.5 29q-70 0 -109 -26.5t-59 -88.5
l-108 16q56 191 280 191q74 0 130 -25t87 -70t31 -104q0 -111 -125 -157q158 -37 158 -183z" />
    <glyph glyph-name="acute" unicode="&#xb4;" horiz-adv-x="682" 
d="M227 1200l153 266h175l-225 -266h-103z" />
    <glyph glyph-name="uni00B5" unicode="&#xb5;" horiz-adv-x="1107" 
d="M268 470q0 -386 285 -386q151 0 218.5 103.5t67.5 276.5v597h129v-1061h-121v144q-104 -169 -292 -169q-73 0 -123.5 13.5t-88.5 43t-75 80.5v-518h-129v1467h129v-591z" />
    <glyph glyph-name="paragraph" unicode="&#xb6;" horiz-adv-x="1109" 
d="M941 1356v-1762h-129v1762h-222v-1762h-129v1031h-10q-123 0 -213.5 55.5t-138 151.5t-47.5 216q0 125 54.5 219.5t152 146.5t222.5 52h617v-110h-157z" />
    <glyph glyph-name="periodcentered" unicode="&#xb7;" horiz-adv-x="569" 
d="M197 630v185h175v-185h-175z" />
    <glyph glyph-name="cedilla" unicode="&#xb8;" horiz-adv-x="682" 
d="M343 -90q171 -20 171 -148q0 -79 -70 -123.5t-218 -44.5q-24 0 -52 2t-38 4l8 87q44 -4 81 -4q79 0 119 21t40 67q0 37 -35.5 60.5t-109.5 23.5l46 159h88z" />
    <glyph glyph-name="uni00B9" unicode="&#xb9;" horiz-adv-x="682" 
d="M349 714v610q-102 -98 -225 -139v84q83 35 143 81.5t111 115.5h77v-752h-106z" />
    <glyph glyph-name="ordmasculine" unicode="&#xba;" horiz-adv-x="770" 
d="M58 1117q0 119 42.5 203.5t116 127.5t165.5 43q98 0 172.5 -46.5t116 -132t41.5 -198.5q0 -111 -40 -196t-114 -132t-172 -47q-164 0 -246 102.5t-82 275.5zM378 1405q-96 0 -153 -73.5t-57 -217.5q0 -140 55.5 -214.5t156.5 -74.5q109 0 165.5 76t56.5 214
q0 136 -56.5 213t-167.5 77z" />
    <glyph glyph-name="guillemotright" unicode="&#xbb;" 
d="M557 520l-297 -448h-106l260 448l-260 459h106zM981 520l-297 -448h-106l260 448l-260 459h106z" />
    <glyph glyph-name="onequarter" unicode="&#xbc;" horiz-adv-x="1628" 
d="M349 714v610q-102 -98 -225 -139v84q83 35 143 81.5t111 115.5h77v-752h-106zM411 -53h-108l978 1544h108zM1459 254h109v-84h-109v-170h-98v170h-381v84l398 498h81v-498zM1361 596l-276 -342h276v342z" />
    <glyph glyph-name="onehalf" unicode="&#xbd;" horiz-adv-x="1628" 
d="M349 714v610q-102 -98 -225 -139v84q83 35 143 81.5t111 115.5h77v-752h-106zM386 -53h-108l978 1544h108zM1002 0v7q0 47 26 92.5t91.5 105.5t186.5 148q81 58 110.5 98t29.5 88q0 57 -39 89t-108 32q-79 0 -119.5 -32.5t-56.5 -103.5l-107 17q28 109 96 160t187 51
q81 0 140 -28t89.5 -75.5t30.5 -103.5q0 -71 -36.5 -129t-123.5 -120q-120 -86 -173 -129t-71 -71h412v-96h-565z" />
    <glyph glyph-name="threequarters" unicode="&#xbe;" horiz-adv-x="1628" 
d="M626 927q0 -69 -36 -122t-99.5 -82t-145.5 -29q-114 0 -187 51.5t-103 159.5l111 15q21 -63 63 -96.5t114 -33.5q78 0 124 39.5t46 103.5q0 59 -43.5 91.5t-127.5 32.5q-31 0 -66 -5l16 89q101 2 145 35t44 87q0 53 -38.5 82t-101.5 29q-70 0 -109 -26.5t-59 -88.5
l-108 16q56 191 280 191q74 0 130 -25t87 -70t31 -104q0 -111 -125 -157q158 -37 158 -183zM416 -53h-108l978 1544h108zM1459 254h109v-84h-109v-170h-98v170h-381v84l398 498h81v-498zM1361 596l-276 -342h276v342z" />
    <glyph glyph-name="questiondown" unicode="&#xbf;" horiz-adv-x="1024" 
d="M624 1061v-185h-175v185h175zM602 641q0 -97 -18.5 -160t-58 -112t-116.5 -119q-72 -66 -109.5 -110t-53 -85.5t-15.5 -93.5q0 -84 37 -147t100 -96t139 -33q236 0 304 299l135 -23q-41 -191 -155 -291t-292 -100q-125 0 -217.5 53.5t-141 142t-48.5 191.5
q0 100 53.5 186t169.5 192q77 70 108.5 111t41.5 85.5t10 131.5v36h127v-58z" />
    <glyph glyph-name="Agrave" unicode="&#xc0;" horiz-adv-x="1323" 
d="M1165 0l-182 465h-661l-172 -465h-146l561 1466h160l594 -1466h-154zM535 1038l-172 -458h575l-178 452q-59 147 -115 328h-4q-17 -62 -45.5 -149.5t-60.5 -172.5zM663 1569l-225 266h174l154 -266h-103z" />
    <glyph glyph-name="Aacute" unicode="&#xc1;" horiz-adv-x="1323" 
d="M1165 0l-182 465h-661l-172 -465h-146l561 1466h160l594 -1466h-154zM535 1038l-172 -458h575l-178 452q-59 147 -115 328h-4q-17 -62 -45.5 -149.5t-60.5 -172.5zM537 1569l153 266h175l-225 -266h-103z" />
    <glyph glyph-name="Acircumflex" unicode="&#xc2;" horiz-adv-x="1323" 
d="M1165 0l-182 465h-661l-172 -465h-146l561 1466h160l594 -1466h-154zM535 1038l-172 -458h575l-178 452q-59 147 -115 328h-4q-17 -62 -45.5 -149.5t-60.5 -172.5zM779 1569l-139 184l-139 -184h-132l197 266h148l197 -266h-132z" />
    <glyph glyph-name="Atilde" unicode="&#xc3;" horiz-adv-x="1323" 
d="M1165 0l-182 465h-661l-172 -465h-146l561 1466h160l594 -1466h-154zM535 1038l-172 -458h575l-178 452q-59 147 -115 328h-4q-17 -62 -45.5 -149.5t-60.5 -172.5zM773 1599q-34 0 -68 9t-76 31q-47 25 -72 34t-45 9q-29 0 -42.5 -19.5t-16.5 -63.5h-105q5 96 44 142
t115 46q68 0 142 -40q49 -26 72.5 -34.5t44.5 -8.5q29 0 42.5 19.5t16.5 63.5h105q-4 -88 -43 -138t-114 -50z" />
    <glyph glyph-name="Adieresis" unicode="&#xc4;" horiz-adv-x="1323" 
d="M1165 0l-182 465h-661l-172 -465h-146l561 1466h160l594 -1466h-154zM535 1038l-172 -458h575l-178 452q-59 147 -115 328h-4q-17 -62 -45.5 -149.5t-60.5 -172.5zM553 1591h-123v162h123v-162zM862 1591h-123v162h123v-162z" />
    <glyph glyph-name="Aring" unicode="&#xc5;" horiz-adv-x="1323" 
d="M643 1796q49 0 90 -24t65 -65t24 -90q0 -51 -26 -93t-69 -65l592 -1459h-154l-182 465h-661l-172 -465h-146l557 1457q-44 23 -70.5 65.5t-26.5 94.5q0 49 24 90t65 65t90 24zM643 1503q47 0 80.5 33.5t33.5 80.5t-33.5 80.5t-80.5 33.5t-80.5 -33.5t-33.5 -80.5
t33.5 -80.5t80.5 -33.5zM535 1038l-172 -458h575l-178 452q-59 147 -115 328h-4q-17 -62 -45.5 -149.5t-60.5 -172.5z" />
    <glyph glyph-name="AE" unicode="&#xc6;" horiz-adv-x="1996" 
d="M1117 1341v-522h691v-125h-691v-569h781v-125h-920v465h-628l-224 -465h-146l710 1466h1173v-125h-746zM978 1341h-209l-364 -761h573v761z" />
    <glyph glyph-name="Ccedilla" unicode="&#xc7;" horiz-adv-x="1457" 
d="M108 743q0 222 83.5 391.5t235 263t348.5 93.5q213 0 358.5 -101t206.5 -292l-135 -33q-51 151 -161.5 229t-272.5 78q-154 0 -271.5 -80t-182 -222.5t-64.5 -324.5q0 -193 60 -340t175.5 -229t276.5 -82q176 0 297.5 95.5t169.5 275.5l135 -33q-40 -147 -123.5 -249
t-201 -154t-260.5 -54l-19 -65q171 -20 171 -148q0 -79 -70 -123.5t-218 -44.5q-24 0 -52 2t-38 4l8 87q44 -4 81 -4q79 0 119 21t40 67q0 37 -35.5 60.5t-109.5 23.5l36 124q-183 17 -315 113.5t-202 263t-70 387.5z" />
    <glyph glyph-name="Egrave" unicode="&#xc8;" horiz-adv-x="1192" 
d="M313 1341v-522h691v-125h-691v-569h781v-125h-920v1466h885v-125h-746zM618 1569l-225 266h174l154 -266h-103z" />
    <glyph glyph-name="Eacute" unicode="&#xc9;" horiz-adv-x="1192" 
d="M313 1341v-522h691v-125h-691v-569h781v-125h-920v1466h885v-125h-746zM503 1569l153 266h175l-225 -266h-103z" />
    <glyph glyph-name="Ecircumflex" unicode="&#xca;" horiz-adv-x="1192" 
d="M313 1341v-522h691v-125h-691v-569h781v-125h-920v1466h885v-125h-746zM756 1569l-139 184l-139 -184h-132l197 266h148l197 -266h-132z" />
    <glyph glyph-name="Edieresis" unicode="&#xcb;" horiz-adv-x="1192" 
d="M313 1341v-522h691v-125h-691v-569h781v-125h-920v1466h885v-125h-746zM518 1591h-123v162h123v-162zM827 1591h-123v162h123v-162z" />
    <glyph glyph-name="Igrave" unicode="&#xcc;" horiz-adv-x="487" 
d="M174 0v1466h139v-1466h-139zM256 1569l-225 266h174l154 -266h-103z" />
    <glyph glyph-name="Iacute" unicode="&#xcd;" horiz-adv-x="487" 
d="M174 0v1466h139v-1466h-139zM131 1569l153 266h175l-225 -266h-103z" />
    <glyph glyph-name="Icircumflex" unicode="&#xce;" horiz-adv-x="487" 
d="M174 0v1466h139v-1466h-139zM384 1569l-139 184l-139 -184h-132l197 266h148l197 -266h-132z" />
    <glyph glyph-name="Idieresis" unicode="&#xcf;" horiz-adv-x="487" 
d="M174 0v1466h139v-1466h-139zM152 1591h-123v162h123v-162zM461 1591h-123v162h123v-162z" />
    <glyph glyph-name="Eth" unicode="&#xd0;" horiz-adv-x="1434" 
d="M174 1466h514q205 0 348 -89t216.5 -251t73.5 -380q0 -248 -77.5 -415.5t-219.5 -249t-337 -81.5h-518v676h-174v110h174v680zM1181 750q0 282 -125 436.5t-384 154.5h-359v-555h457v-110h-457v-551h359q175 0 287 64.5t167 202t55 358.5z" />
    <glyph glyph-name="Ntilde" unicode="&#xd1;" horiz-adv-x="1423" 
d="M1121 214v1252h128v-1466h-149l-794 1245h-4v-1245h-128v1466h140l800 -1252h7zM871 1599q-34 0 -68 9t-76 31q-47 25 -72 34t-45 9q-29 0 -42.5 -19.5t-16.5 -63.5h-105q5 96 44 142t115 46q68 0 142 -40q49 -26 72.5 -34.5t44.5 -8.5q29 0 42.5 19.5t16.5 63.5h105
q-4 -88 -43 -138t-114 -50z" />
    <glyph glyph-name="Ograve" unicode="&#xd2;" horiz-adv-x="1584" 
d="M108 731q0 229 88 401t244.5 265.5t351.5 93.5q197 0 352.5 -93t243.5 -265t88 -400q0 -225 -88.5 -397.5t-244.5 -266.5t-351 -94q-194 0 -349.5 93t-245 264.5t-89.5 398.5zM790 1372q-152 0 -275 -76t-192.5 -222t-69.5 -347q0 -205 75 -348t198 -214t264 -71
q154 0 277 75.5t193.5 219.5t70.5 340t-69.5 342t-192 223.5t-279.5 77.5zM808 1569l-225 266h174l154 -266h-103z" />
    <glyph glyph-name="Oacute" unicode="&#xd3;" horiz-adv-x="1584" 
d="M108 731q0 229 88 401t244.5 265.5t351.5 93.5q197 0 352.5 -93t243.5 -265t88 -400q0 -225 -88.5 -397.5t-244.5 -266.5t-351 -94q-194 0 -349.5 93t-245 264.5t-89.5 398.5zM790 1372q-152 0 -275 -76t-192.5 -222t-69.5 -347q0 -205 75 -348t198 -214t264 -71
q154 0 277 75.5t193.5 219.5t70.5 340t-69.5 342t-192 223.5t-279.5 77.5zM683 1569l153 266h175l-225 -266h-103z" />
    <glyph glyph-name="Ocircumflex" unicode="&#xd4;" horiz-adv-x="1584" 
d="M108 731q0 229 88 401t244.5 265.5t351.5 93.5q197 0 352.5 -93t243.5 -265t88 -400q0 -225 -88.5 -397.5t-244.5 -266.5t-351 -94q-194 0 -349.5 93t-245 264.5t-89.5 398.5zM790 1372q-152 0 -275 -76t-192.5 -222t-69.5 -347q0 -205 75 -348t198 -214t264 -71
q154 0 277 75.5t193.5 219.5t70.5 340t-69.5 342t-192 223.5t-279.5 77.5zM936 1569l-139 184l-139 -184h-132l197 266h148l197 -266h-132z" />
    <glyph glyph-name="Otilde" unicode="&#xd5;" horiz-adv-x="1584" 
d="M108 731q0 229 88 401t244.5 265.5t351.5 93.5q197 0 352.5 -93t243.5 -265t88 -400q0 -225 -88.5 -397.5t-244.5 -266.5t-351 -94q-194 0 -349.5 93t-245 264.5t-89.5 398.5zM790 1372q-152 0 -275 -76t-192.5 -222t-69.5 -347q0 -205 75 -348t198 -214t264 -71
q154 0 277 75.5t193.5 219.5t70.5 340t-69.5 342t-192 223.5t-279.5 77.5zM931 1599q-34 0 -68 9t-76 31q-47 25 -72 34t-45 9q-29 0 -42.5 -19.5t-16.5 -63.5h-105q5 96 44 142t115 46q68 0 142 -40q49 -26 72.5 -34.5t44.5 -8.5q29 0 42.5 19.5t16.5 63.5h105
q-4 -88 -43 -138t-114 -50z" />
    <glyph glyph-name="Odieresis" unicode="&#xd6;" horiz-adv-x="1584" 
d="M108 731q0 229 88 401t244.5 265.5t351.5 93.5q197 0 352.5 -93t243.5 -265t88 -400q0 -225 -88.5 -397.5t-244.5 -266.5t-351 -94q-194 0 -349.5 93t-245 264.5t-89.5 398.5zM790 1372q-152 0 -275 -76t-192.5 -222t-69.5 -347q0 -205 75 -348t198 -214t264 -71
q154 0 277 75.5t193.5 219.5t70.5 340t-69.5 342t-192 223.5t-279.5 77.5zM704 1591h-123v162h123v-162zM1013 1591h-123v162h123v-162z" />
    <glyph glyph-name="multiply" unicode="&#xd7;" horiz-adv-x="1148" 
d="M1039 1118l-398 -397l398 -399l-66 -66l-399 399l-400 -399l-65 66l399 399l-399 397l65 66l400 -398l399 398z" />
    <glyph glyph-name="Oslash" unicode="&#xd8;" horiz-adv-x="1584" 
d="M108 731q0 229 88 401t243.5 265.5t352.5 93.5q136 0 253.5 -45.5t207.5 -130.5l169 190l70 -59l-177 -199q77 -99 119 -229.5t42 -284.5q0 -225 -88.5 -397.5t-244.5 -266.5t-351 -94q-133 0 -250 44.5t-207 128.5l-174 -195l-70 59l181 203q-79 99 -121.5 229.5
t-42.5 286.5zM364 318l800 897q-72 76 -167.5 116.5t-206.5 40.5q-154 0 -276 -76t-191.5 -222t-69.5 -347q0 -244 111 -409zM1221 1142l-799 -895q73 -76 168.5 -114.5t199.5 -38.5q154 0 277 75.5t193.5 219.5t70.5 340q0 246 -110 413z" />
    <glyph glyph-name="Ugrave" unicode="&#xd9;" horiz-adv-x="1424" 
d="M714 94q199 0 302 108t103 313v951h139v-947q0 -268 -137 -406t-405 -138q-279 0 -414.5 135t-135.5 408v948h139v-949q0 -218 103.5 -320.5t305.5 -102.5zM739 1569l-225 266h174l154 -266h-103z" />
    <glyph glyph-name="Uacute" unicode="&#xda;" horiz-adv-x="1424" 
d="M714 94q199 0 302 108t103 313v951h139v-947q0 -268 -137 -406t-405 -138q-279 0 -414.5 135t-135.5 408v948h139v-949q0 -218 103.5 -320.5t305.5 -102.5zM615 1569l153 266h175l-225 -266h-103z" />
    <glyph glyph-name="Ucircumflex" unicode="&#xdb;" horiz-adv-x="1424" 
d="M714 94q199 0 302 108t103 313v951h139v-947q0 -268 -137 -406t-405 -138q-279 0 -414.5 135t-135.5 408v948h139v-949q0 -218 103.5 -320.5t305.5 -102.5zM868 1569l-139 184l-139 -184h-132l197 266h148l197 -266h-132z" />
    <glyph glyph-name="Udieresis" unicode="&#xdc;" horiz-adv-x="1424" 
d="M714 94q199 0 302 108t103 313v951h139v-947q0 -268 -137 -406t-405 -138q-279 0 -414.5 135t-135.5 408v948h139v-949q0 -218 103.5 -320.5t305.5 -102.5zM635 1591h-123v162h123v-162zM944 1591h-123v162h123v-162z" />
    <glyph glyph-name="Yacute" unicode="&#xdd;" horiz-adv-x="1221" 
d="M1056 1466h153l-538 -833v-633h-139v633l-520 833h159l439 -709zM512 1569l153 266h175l-225 -266h-103z" />
    <glyph glyph-name="Thorn" unicode="&#xde;" horiz-adv-x="1235" 
d="M678 1155q142 0 247.5 -49t163.5 -143.5t58 -226.5q0 -124 -57 -221t-162 -151t-245 -54h-370v-310h-139v1467h139v-312h365zM1002 733q0 147 -86.5 222t-271.5 75h-331v-595h330q173 0 266 76t93 222z" />
    <glyph glyph-name="germandbls" unicode="&#xdf;" horiz-adv-x="1076" 
d="M810 595q87 -67 134.5 -135.5t47.5 -162.5q0 -100 -41 -172.5t-113 -111t-163 -38.5q-92 0 -164 36t-130 131l111 74q77 -132 183 -132q84 0 134 55t50 148q0 59 -31.5 108.5t-116.5 115.5q-84 65 -127 109t-58 77.5t-15 73.5t22 91.5t91 166.5q44 72 60.5 115.5
t16.5 80.5q0 72 -53.5 113t-158.5 41q-117 0 -172 -69.5t-55 -206.5v-1103h-123v1106q0 117 40.5 203.5t119.5 134t192 47.5q107 0 184.5 -33.5t118 -93.5t40.5 -140q0 -60 -21.5 -116t-77.5 -140q-91 -136 -91 -192q0 -23 9.5 -40.5t44 -49t112.5 -91.5z" />
    <glyph glyph-name="agrave" unicode="&#xe0;" horiz-adv-x="1081" 
d="M969 0h-133q-27 64 -34 160l-3 1q-72 -94 -162.5 -140t-215.5 -46q-97 0 -170 37.5t-113 104.5t-40 153q0 92 39 156.5t125 107t227 63.5q209 31 304 67v39q0 99 -22 157.5t-79.5 87t-163.5 28.5q-230 0 -276 -208l-127 18q32 147 136 223t275 76q132 0 216.5 -35
t127 -113.5t42.5 -209.5v-398q0 -137 9.5 -201.5t37.5 -127.5zM477 485q-132 -25 -189 -76t-57 -139q0 -89 58.5 -139.5t164.5 -50.5q39 0 89.5 15t96 42t72.5 60q35 43 51 74.5t23 84.5t7 152v55q-27 -13 -108 -33.5t-208 -44.5zM541 1200l-225 266h174l154 -266h-103z" />
    <glyph glyph-name="aacute" unicode="&#xe1;" horiz-adv-x="1081" 
d="M969 0h-133q-27 64 -34 160l-3 1q-72 -94 -162.5 -140t-215.5 -46q-97 0 -170 37.5t-113 104.5t-40 153q0 92 39 156.5t125 107t227 63.5q209 31 304 67v39q0 99 -22 157.5t-79.5 87t-163.5 28.5q-230 0 -276 -208l-127 18q32 147 136 223t275 76q132 0 216.5 -35
t127 -113.5t42.5 -209.5v-398q0 -137 9.5 -201.5t37.5 -127.5zM477 485q-132 -25 -189 -76t-57 -139q0 -89 58.5 -139.5t164.5 -50.5q39 0 89.5 15t96 42t72.5 60q35 43 51 74.5t23 84.5t7 152v55q-27 -13 -108 -33.5t-208 -44.5zM417 1200l153 266h175l-225 -266h-103z" />
    <glyph glyph-name="acircumflex" unicode="&#xe2;" horiz-adv-x="1081" 
d="M969 0h-133q-27 64 -34 160l-3 1q-72 -94 -162.5 -140t-215.5 -46q-97 0 -170 37.5t-113 104.5t-40 153q0 92 39 156.5t125 107t227 63.5q209 31 304 67v39q0 99 -22 157.5t-79.5 87t-163.5 28.5q-230 0 -276 -208l-127 18q32 147 136 223t275 76q132 0 216.5 -35
t127 -113.5t42.5 -209.5v-398q0 -137 9.5 -201.5t37.5 -127.5zM477 485q-132 -25 -189 -76t-57 -139q0 -89 58.5 -139.5t164.5 -50.5q39 0 89.5 15t96 42t72.5 60q35 43 51 74.5t23 84.5t7 152v55q-27 -13 -108 -33.5t-208 -44.5zM670 1200l-139 184l-139 -184h-132l197 266
h148l197 -266h-132z" />
    <glyph glyph-name="atilde" unicode="&#xe3;" horiz-adv-x="1081" 
d="M969 0h-133q-27 64 -34 160l-3 1q-72 -94 -162.5 -140t-215.5 -46q-97 0 -170 37.5t-113 104.5t-40 153q0 92 39 156.5t125 107t227 63.5q209 31 304 67v39q0 99 -22 157.5t-79.5 87t-163.5 28.5q-230 0 -276 -208l-127 18q32 147 136 223t275 76q132 0 216.5 -35
t127 -113.5t42.5 -209.5v-398q0 -137 9.5 -201.5t37.5 -127.5zM477 485q-132 -25 -189 -76t-57 -139q0 -89 58.5 -139.5t164.5 -50.5q39 0 89.5 15t96 42t72.5 60q35 43 51 74.5t23 84.5t7 152v55q-27 -13 -108 -33.5t-208 -44.5zM664 1230q-34 0 -68 9t-76 31
q-47 25 -72 34t-45 9q-29 0 -42.5 -19.5t-16.5 -63.5h-105q5 96 44 142t115 46q68 0 142 -40q49 -26 72.5 -34.5t44.5 -8.5q29 0 42.5 19.5t16.5 63.5h105q-4 -88 -43 -138t-114 -50z" />
    <glyph glyph-name="adieresis" unicode="&#xe4;" horiz-adv-x="1081" 
d="M969 0h-133q-27 64 -34 160l-3 1q-72 -94 -162.5 -140t-215.5 -46q-97 0 -170 37.5t-113 104.5t-40 153q0 92 39 156.5t125 107t227 63.5q209 31 304 67v39q0 99 -22 157.5t-79.5 87t-163.5 28.5q-230 0 -276 -208l-127 18q32 147 136 223t275 76q132 0 216.5 -35
t127 -113.5t42.5 -209.5v-398q0 -137 9.5 -201.5t37.5 -127.5zM477 485q-132 -25 -189 -76t-57 -139q0 -89 58.5 -139.5t164.5 -50.5q39 0 89.5 15t96 42t72.5 60q35 43 51 74.5t23 84.5t7 152v55q-27 -13 -108 -33.5t-208 -44.5zM437 1222h-123v162h123v-162zM746 1222
h-123v162h123v-162z" />
    <glyph glyph-name="aring" unicode="&#xe5;" horiz-adv-x="1081" 
d="M969 0h-133q-27 64 -34 160l-3 1q-72 -94 -162.5 -140t-215.5 -46q-97 0 -170 37.5t-113 104.5t-40 153q0 92 39 156.5t125 107t227 63.5q209 31 304 67v39q0 99 -22 157.5t-79.5 87t-163.5 28.5q-230 0 -276 -208l-127 18q32 147 136 223t275 76q132 0 216.5 -35
t127 -113.5t42.5 -209.5v-398q0 -137 9.5 -201.5t37.5 -127.5zM477 485q-132 -25 -189 -76t-57 -139q0 -89 58.5 -139.5t164.5 -50.5q39 0 89.5 15t96 42t72.5 60q35 43 51 74.5t23 84.5t7 152v55q-27 -13 -108 -33.5t-208 -44.5zM530 1513q49 0 90 -24t65 -65t24 -90
t-24 -90t-65 -65t-90 -24t-90 24t-65 65t-24 90t24 90t65 65t90 24zM530 1220q47 0 80.5 33.5t33.5 80.5t-33.5 80.5t-80.5 33.5q-46 0 -80 -33.5t-34 -80.5t33.5 -80.5t80.5 -33.5z" />
    <glyph glyph-name="ae" unicode="&#xe6;" horiz-adv-x="1744" 
d="M1220 84q101 0 176 57.5t109 159.5l127 -20q-49 -149 -159 -227.5t-262 -78.5q-137 0 -235 63.5t-150 182.5q-84 -135 -184.5 -190.5t-231.5 -55.5q-93 0 -164 37.5t-109.5 104.5t-38.5 153q0 92 37.5 156.5t120 107t218.5 63.5q202 31 293 67v39q0 100 -20 157.5
t-74 86.5t-154 29q-110 0 -178 -52t-89 -156l-127 18q32 147 132 223t265 76q142 0 223.5 -44t113.5 -144q56 92 145 140t206 48q223 0 333.5 -156t110.5 -423h-767q4 -132 45.5 -227t115.5 -145t172 -50zM1208 977q-88 0 -157 -43t-111.5 -124.5t-52.5 -195.5h634
q-17 180 -96.5 271.5t-216.5 91.5zM465 485q-126 -25 -180 -76t-54 -139q0 -89 56 -139.5t156 -50.5q38 0 86 15t91.5 42t68.5 60q34 44 49 75.5t22 84t7 151.5v55q-25 -13 -102.5 -33.5t-199.5 -44.5z" />
    <glyph glyph-name="ccedilla" unicode="&#xe7;" horiz-adv-x="1064" 
d="M75 532q0 165 58 290.5t165 194t249 68.5q174 0 279.5 -81.5t154.5 -241.5l-129 -24q-65 238 -311 238q-97 0 -172 -50t-118 -150.5t-43 -246.5q0 -132 40.5 -232.5t117 -156.5t181.5 -56q119 0 199.5 67.5t120.5 214.5l129 -24q-47 -172 -148.5 -263t-260.5 -102
l-19 -67q171 -20 171 -148q0 -79 -70 -123.5t-218 -44.5q-24 0 -52 2t-38 4l8 87q44 -4 81 -4q79 0 119 21t40 67q0 37 -35.5 60.5t-109.5 23.5l35 122q-133 10 -228.5 83t-145.5 195t-50 277z" />
    <glyph glyph-name="egrave" unicode="&#xe8;" horiz-adv-x="1081" 
d="M561 84q107 0 185.5 57.5t113.5 159.5l127 -20q-51 -149 -164 -227.5t-271 -78.5q-146 0 -253.5 67t-165.5 191t-58 289q0 173 58.5 300t165.5 195t251 68q160 0 262.5 -75t149.5 -205t47 -299h-801q4 -131 48.5 -226.5t123 -145.5t181.5 -50zM548 977q-92 0 -164 -43
t-116.5 -124.5t-55.5 -195.5h664q-18 180 -101 271.5t-227 91.5zM564 1200l-225 266h174l154 -266h-103z" />
    <glyph glyph-name="eacute" unicode="&#xe9;" horiz-adv-x="1081" 
d="M561 84q107 0 185.5 57.5t113.5 159.5l127 -20q-51 -149 -164 -227.5t-271 -78.5q-146 0 -253.5 67t-165.5 191t-58 289q0 173 58.5 300t165.5 195t251 68q160 0 262.5 -75t149.5 -205t47 -299h-801q4 -131 48.5 -226.5t123 -145.5t181.5 -50zM548 977q-92 0 -164 -43
t-116.5 -124.5t-55.5 -195.5h664q-18 180 -101 271.5t-227 91.5zM440 1200l153 266h175l-225 -266h-103z" />
    <glyph glyph-name="ecircumflex" unicode="&#xea;" horiz-adv-x="1081" 
d="M561 84q107 0 185.5 57.5t113.5 159.5l127 -20q-51 -149 -164 -227.5t-271 -78.5q-146 0 -253.5 67t-165.5 191t-58 289q0 173 58.5 300t165.5 195t251 68q160 0 262.5 -75t149.5 -205t47 -299h-801q4 -131 48.5 -226.5t123 -145.5t181.5 -50zM548 977q-92 0 -164 -43
t-116.5 -124.5t-55.5 -195.5h664q-18 180 -101 271.5t-227 91.5zM693 1200l-139 184l-139 -184h-132l197 266h148l197 -266h-132z" />
    <glyph glyph-name="edieresis" unicode="&#xeb;" horiz-adv-x="1081" 
d="M561 84q107 0 185.5 57.5t113.5 159.5l127 -20q-51 -149 -164 -227.5t-271 -78.5q-146 0 -253.5 67t-165.5 191t-58 289q0 173 58.5 300t165.5 195t251 68q160 0 262.5 -75t149.5 -205t47 -299h-801q4 -131 48.5 -226.5t123 -145.5t181.5 -50zM548 977q-92 0 -164 -43
t-116.5 -124.5t-55.5 -195.5h664q-18 180 -101 271.5t-227 91.5zM460 1222h-123v162h123v-162zM769 1222h-123v162h123v-162z" />
    <glyph glyph-name="igrave" unicode="&#xec;" horiz-adv-x="407" 
d="M268 0h-129v1061h129v-1061zM212 1200l-225 266h174l154 -266h-103z" />
    <glyph glyph-name="iacute" unicode="&#xed;" horiz-adv-x="407" 
d="M268 0h-129v1061h129v-1061zM88 1200l153 266h175l-225 -266h-103z" />
    <glyph glyph-name="icircumflex" unicode="&#xee;" horiz-adv-x="407" 
d="M268 0h-129v1061h129v-1061zM341 1200l-139 184l-139 -184h-132l197 266h148l197 -266h-132z" />
    <glyph glyph-name="idieresis" unicode="&#xef;" horiz-adv-x="407" 
d="M268 0h-129v1061h129v-1061zM108 1222h-123v162h123v-162zM417 1222h-123v162h123v-162z" />
    <glyph glyph-name="eth" unicode="&#xf0;" horiz-adv-x="1102" 
d="M550 -25q-141 0 -248.5 63t-167 186t-59.5 298q0 171 60.5 294.5t166 188t234.5 64.5q55 0 115 -18t102 -45l4 4q-30 53 -75 115t-95 117l-286 -125l-36 85l259 110q-55 55 -195 154h172q45 -33 131 -106l224 99l36 -85l-196 -86q331 -348 331 -764q0 -175 -59 -298.5
t-166.5 -187t-251.5 -63.5zM548 960q-97 0 -174.5 -49t-121.5 -147.5t-44 -241.5q0 -145 43 -243t120 -146.5t179 -48.5q101 0 178.5 48.5t121.5 147.5t44 244q0 139 -43.5 237t-121.5 148.5t-181 50.5z" />
    <glyph glyph-name="ntilde" unicode="&#xf1;" horiz-adv-x="1096" 
d="M832 708q0 128 -65 196.5t-187 68.5q-92 0 -164.5 -45.5t-110.5 -122.5q-37 -73 -37 -212v-593h-129v1061h121v-169q54 92 142 142.5t195 50.5q174 0 269 -93.5t95 -265.5v-726h-129v708zM704 1230q-34 0 -68 9t-76 31q-47 25 -72 34t-45 9q-29 0 -42.5 -19.5
t-16.5 -63.5h-105q5 96 44 142t115 46q68 0 142 -40q49 -26 72.5 -34.5t44.5 -8.5q29 0 42.5 19.5t16.5 63.5h105q-4 -88 -43 -138t-114 -50z" />
    <glyph glyph-name="ograve" unicode="&#xf2;" horiz-adv-x="1102" 
d="M75 530q0 178 60 303t167 188.5t248 63.5q143 0 250.5 -63.5t167 -188t59.5 -301.5t-59 -302.5t-166.5 -190t-251.5 -64.5q-141 0 -248.5 64t-167 190t-59.5 301zM548 976q-99 0 -175.5 -50t-120.5 -150.5t-44 -245.5q0 -147 43.5 -247t120 -149.5t178.5 -49.5
q101 0 178.5 49.5t121.5 150t44 248.5q0 142 -43.5 241.5t-121.5 151t-181 51.5zM565 1200l-225 266h174l154 -266h-103z" />
    <glyph glyph-name="oacute" unicode="&#xf3;" horiz-adv-x="1102" 
d="M75 530q0 178 60 303t167 188.5t248 63.5q143 0 250.5 -63.5t167 -188t59.5 -301.5t-59 -302.5t-166.5 -190t-251.5 -64.5q-141 0 -248.5 64t-167 190t-59.5 301zM548 976q-99 0 -175.5 -50t-120.5 -150.5t-44 -245.5q0 -147 43.5 -247t120 -149.5t178.5 -49.5
q101 0 178.5 49.5t121.5 150t44 248.5q0 142 -43.5 241.5t-121.5 151t-181 51.5zM441 1200l153 266h175l-225 -266h-103z" />
    <glyph glyph-name="ocircumflex" unicode="&#xf4;" horiz-adv-x="1102" 
d="M75 530q0 178 60 303t167 188.5t248 63.5q143 0 250.5 -63.5t167 -188t59.5 -301.5t-59 -302.5t-166.5 -190t-251.5 -64.5q-141 0 -248.5 64t-167 190t-59.5 301zM548 976q-99 0 -175.5 -50t-120.5 -150.5t-44 -245.5q0 -147 43.5 -247t120 -149.5t178.5 -49.5
q101 0 178.5 49.5t121.5 150t44 248.5q0 142 -43.5 241.5t-121.5 151t-181 51.5zM694 1200l-139 184l-139 -184h-132l197 266h148l197 -266h-132z" />
    <glyph glyph-name="otilde" unicode="&#xf5;" horiz-adv-x="1102" 
d="M75 530q0 178 60 303t167 188.5t248 63.5q143 0 250.5 -63.5t167 -188t59.5 -301.5t-59 -302.5t-166.5 -190t-251.5 -64.5q-141 0 -248.5 64t-167 190t-59.5 301zM548 976q-99 0 -175.5 -50t-120.5 -150.5t-44 -245.5q0 -147 43.5 -247t120 -149.5t178.5 -49.5
q101 0 178.5 49.5t121.5 150t44 248.5q0 142 -43.5 241.5t-121.5 151t-181 51.5zM688 1230q-34 0 -68 9t-76 31q-47 25 -72 34t-45 9q-29 0 -42.5 -19.5t-16.5 -63.5h-105q5 96 44 142t115 46q68 0 142 -40q49 -26 72.5 -34.5t44.5 -8.5q29 0 42.5 19.5t16.5 63.5h105
q-4 -88 -43 -138t-114 -50z" />
    <glyph glyph-name="odieresis" unicode="&#xf6;" horiz-adv-x="1102" 
d="M75 530q0 178 60 303t167 188.5t248 63.5q143 0 250.5 -63.5t167 -188t59.5 -301.5t-59 -302.5t-166.5 -190t-251.5 -64.5q-141 0 -248.5 64t-167 190t-59.5 301zM548 976q-99 0 -175.5 -50t-120.5 -150.5t-44 -245.5q0 -147 43.5 -247t120 -149.5t178.5 -49.5
q101 0 178.5 49.5t121.5 150t44 248.5q0 142 -43.5 241.5t-121.5 151t-181 51.5zM461 1222h-123v162h123v-162zM770 1222h-123v162h123v-162z" />
    <glyph glyph-name="divide" unicode="&#xf7;" horiz-adv-x="1148" 
d="M500 989v148h148v-148h-148zM140 674v94h868v-94h-868zM500 305v148h148v-148h-148z" />
    <glyph glyph-name="oslash" unicode="&#xf8;" horiz-adv-x="1102" 
d="M75 530q0 178 60 303t167 188.5t248 63.5q178 0 300 -99l126 167l69 -55l-133 -175q56 -71 85.5 -169.5t29.5 -221.5q0 -177 -59 -302.5t-166.5 -190t-251.5 -64.5q-169 0 -287 89l-136 -180l-69 55l141 187q-60 71 -92 173t-32 231zM278 230l497 657q-89 89 -227 89
q-99 0 -175.5 -50t-120.5 -150.5t-44 -245.5q0 -184 70 -300zM830 814l-494 -654q85 -76 214 -76q101 0 178.5 49.5t121.5 150t44 248.5q0 170 -64 282z" />
    <glyph glyph-name="ugrave" unicode="&#xf9;" horiz-adv-x="1096" 
d="M509 88q151 0 234.5 98t83.5 282v593h129v-1061h-121v170q-55 -93 -143.5 -144t-194.5 -51q-175 0 -268.5 94.5t-93.5 265.5v726h129v-709q0 -127 61.5 -195.5t183.5 -68.5zM561 1200l-225 266h174l154 -266h-103z" />
    <glyph glyph-name="uacute" unicode="&#xfa;" horiz-adv-x="1096" 
d="M509 88q151 0 234.5 98t83.5 282v593h129v-1061h-121v170q-55 -93 -143.5 -144t-194.5 -51q-175 0 -268.5 94.5t-93.5 265.5v726h129v-709q0 -127 61.5 -195.5t183.5 -68.5zM457 1200l153 266h175l-225 -266h-103z" />
    <glyph glyph-name="ucircumflex" unicode="&#xfb;" horiz-adv-x="1096" 
d="M509 88q151 0 234.5 98t83.5 282v593h129v-1061h-121v170q-55 -93 -143.5 -144t-194.5 -51q-175 0 -268.5 94.5t-93.5 265.5v726h129v-709q0 -127 61.5 -195.5t183.5 -68.5zM683 1200l-139 184l-139 -184h-132l197 266h148l197 -266h-132z" />
    <glyph glyph-name="udieresis" unicode="&#xfc;" horiz-adv-x="1096" 
d="M509 88q151 0 234.5 98t83.5 282v593h129v-1061h-121v170q-55 -93 -143.5 -144t-194.5 -51q-175 0 -268.5 94.5t-93.5 265.5v726h129v-709q0 -127 61.5 -195.5t183.5 -68.5zM447 1222h-123v162h123v-162zM756 1222h-123v162h123v-162z" />
    <glyph glyph-name="yacute" unicode="&#xfd;" horiz-adv-x="958" 
d="M483 147h4q30 102 98 288l231 626h127l-456 -1216q-40 -106 -81 -165.5t-89.5 -84.5t-115.5 -25q-66 0 -128 16l27 109q18 -6 41.5 -9t42.5 -3q51 0 83 17t56.5 58t53.5 119l42 117l-399 1067h137l227 -618q55 -151 99 -296zM407 1200l153 266h175l-225 -266h-103z" />
    <glyph glyph-name="thorn" unicode="&#xfe;" horiz-adv-x="1132" 
d="M272 156h-4v-562h-129v1872h129v-577l5 -1q72 105 158 151t195 46q133 0 230.5 -70.5t149 -194.5t51.5 -280q0 -169 -53 -296.5t-152.5 -198t-234.5 -70.5q-115 0 -198 42.5t-147 138.5zM607 976q-112 0 -189.5 -59.5t-116.5 -164t-39 -239.5q0 -134 42.5 -231
t119 -147.5t178.5 -50.5q98 0 171 55.5t112 158t39 240.5q0 131 -39 230.5t-111 153.5t-167 54z" />
    <glyph glyph-name="ydieresis" unicode="&#xff;" horiz-adv-x="958" 
d="M483 147h4q30 102 98 288l231 626h127l-456 -1216q-40 -106 -81 -165.5t-89.5 -84.5t-115.5 -25q-66 0 -128 16l27 109q18 -6 41.5 -9t42.5 -3q51 0 83 17t56.5 58t53.5 119l42 117l-399 1067h137l227 -618q55 -151 99 -296zM407 1222h-123v162h123v-162zM716 1222h-123
v162h123v-162z" />
    <glyph glyph-name="glyph221" horiz-adv-x="1148" 
d="M140 674v94h868v-94h-868z" />
    <glyph glyph-name="glyph222" horiz-adv-x="967" 
d="M467 1379q-71 0 -105.5 -24t-44.5 -63t-10 -100v-131h205v-105h-205v-956h-129v956h-160v105h160v143q0 145 68 216t204 71q44 0 77.5 -5.5t73.5 -15.5l-27 -109q-49 18 -107 18zM699 1288v178h129v-178h-129zM699 0v1061h129v-1061h-129z" />
    <glyph glyph-name="glyph223" horiz-adv-x="967" 
d="M467 1379q-71 0 -105.5 -24t-44.5 -63t-10 -100v-131h205v-105h-205v-956h-129v956h-160v105h160v143q0 145 68 216t204 71q44 0 77.5 -5.5t73.5 -15.5l-27 -109q-49 18 -107 18zM699 0v1466h129v-1466h-129z" />
    <glyph glyph-name="macron" unicode="&#xaf;" horiz-adv-x="1024" 
d="M-12 1621v102h1048v-102h-1048z" />
    <glyph glyph-name="glyph225" horiz-adv-x="682" 
d="M513 968h109v-84h-109v-170h-98v170h-381v84l398 498h81v-498zM415 1310l-276 -342h276v342z" />
    <glyph glyph-name="Amacron" unicode="&#x100;" horiz-adv-x="1323" 
d="M1165 0l-182 465h-661l-172 -465h-146l561 1466h160l594 -1466h-154zM535 1038l-172 -458h575l-178 452q-59 147 -115 328h-4q-17 -62 -45.5 -149.5t-60.5 -172.5zM349 1595v110h584v-110h-584z" />
    <glyph glyph-name="amacron" unicode="&#x101;" horiz-adv-x="1081" 
d="M969 0h-133q-27 64 -34 160l-3 1q-72 -94 -162.5 -140t-215.5 -46q-97 0 -170 37.5t-113 104.5t-40 153q0 92 39 156.5t125 107t227 63.5q209 31 304 67v39q0 99 -22 157.5t-79.5 87t-163.5 28.5q-230 0 -276 -208l-127 18q32 147 136 223t275 76q132 0 216.5 -35
t127 -113.5t42.5 -209.5v-398q0 -137 9.5 -201.5t37.5 -127.5zM477 485q-132 -25 -189 -76t-57 -139q0 -89 58.5 -139.5t164.5 -50.5q39 0 89.5 15t96 42t72.5 60q35 43 51 74.5t23 84.5t7 152v55q-27 -13 -108 -33.5t-208 -44.5zM239 1227v110h584v-110h-584z" />
    <glyph glyph-name="Abreve" unicode="&#x102;" horiz-adv-x="1323" 
d="M1165 0l-182 465h-661l-172 -465h-146l561 1466h160l594 -1466h-154zM535 1038l-172 -458h575l-178 452q-59 147 -115 328h-4q-17 -62 -45.5 -149.5t-60.5 -172.5zM652 1674q72 0 112 31.5t55 105.5h105q-14 -113 -85.5 -177.5t-187.5 -64.5q-120 0 -194.5 62t-90.5 180
h106q9 -71 53.5 -104t126.5 -33z" />
    <glyph glyph-name="abreve" unicode="&#x103;" horiz-adv-x="1081" 
d="M969 0h-133q-27 64 -34 160l-3 1q-72 -94 -162.5 -140t-215.5 -46q-97 0 -170 37.5t-113 104.5t-40 153q0 92 39 156.5t125 107t227 63.5q209 31 304 67v39q0 99 -22 157.5t-79.5 87t-163.5 28.5q-230 0 -276 -208l-127 18q32 147 136 223t275 76q132 0 216.5 -35
t127 -113.5t42.5 -209.5v-398q0 -137 9.5 -201.5t37.5 -127.5zM477 485q-132 -25 -189 -76t-57 -139q0 -89 58.5 -139.5t164.5 -50.5q39 0 89.5 15t96 42t72.5 60q35 43 51 74.5t23 84.5t7 152v55q-27 -13 -108 -33.5t-208 -44.5zM528 1305q72 0 112 31.5t55 105.5h105
q-14 -113 -85.5 -177.5t-187.5 -64.5q-120 0 -194.5 62t-90.5 180h106q9 -71 53.5 -104t126.5 -33z" />
    <glyph glyph-name="Aogonek" unicode="&#x104;" horiz-adv-x="1323" 
d="M1390 -273v-94q-29 -12 -68.5 -19t-72.5 -7q-165 0 -165 166q0 57 21.5 116.5t59.5 110.5l-182 465h-661l-172 -465h-146l561 1466h160l594 -1466h-61q-35 -49 -55.5 -102t-20.5 -105q0 -38 21.5 -61t64.5 -23q60 0 122 18zM760 1032q-59 147 -115 328h-4
q-17 -62 -45.5 -149.5t-60.5 -172.5l-172 -458h575z" />
    <glyph glyph-name="aogonek" unicode="&#x105;" horiz-adv-x="1081" 
d="M1061 -273v-94q-29 -12 -68.5 -19t-72.5 -7q-165 0 -165 166q0 57 21.5 116.5t59.5 110.5q-27 64 -34 160l-3 1q-72 -94 -162.5 -140t-215.5 -46q-97 0 -170 37.5t-113 104.5t-40 153q0 92 39 156.5t125 107t227 63.5q209 31 304 67v39q0 99 -22 157.5t-79.5 87
t-163.5 28.5q-230 0 -276 -208l-127 18q32 147 136 223t275 76q132 0 216.5 -35t127 -113.5t42.5 -209.5v-398q0 -137 9.5 -201.5t37.5 -127.5h-40q-35 -49 -55.5 -102t-20.5 -105q0 -38 21.5 -61t64.5 -23q60 0 122 18zM477 485q-132 -25 -189 -76t-57 -139
q0 -89 58.5 -139.5t164.5 -50.5q39 0 89.5 15t96 42t72.5 60q35 43 51 74.5t23 84.5t7 152v55q-27 -13 -108 -33.5t-208 -44.5z" />
    <glyph glyph-name="Cacute" unicode="&#x106;" horiz-adv-x="1457" 
d="M771 1372q-152 0 -270.5 -80t-183 -222.5t-64.5 -324.5q0 -193 60 -340t175.5 -229t276.5 -82q176 0 297.5 95.5t169.5 275.5l135 -33q-40 -149 -125 -251t-205 -154t-265 -52q-206 0 -355.5 93t-229 266t-79.5 409q0 222 83.5 391.5t235 263t348.5 93.5
q213 0 358.5 -101t206.5 -292l-135 -33q-51 151 -161.5 229t-272.5 78zM691 1569l153 266h175l-225 -266h-103z" />
    <glyph glyph-name="cacute" unicode="&#x107;" horiz-adv-x="1064" 
d="M541 976q-95 0 -171 -50t-119 -150.5t-43 -246.5q0 -132 40.5 -232.5t117 -156.5t181.5 -56q119 0 199.5 67.5t120.5 214.5l129 -24q-50 -184 -163 -275.5t-292 -91.5q-144 0 -249.5 71t-161 197t-55.5 289q0 165 58 290.5t165 194t249 68.5q174 0 279.5 -81.5
t154.5 -241.5l-129 -24q-65 238 -311 238zM443 1200l153 266h175l-225 -266h-103z" />
    <glyph glyph-name="Ccaron" unicode="&#x10c;" horiz-adv-x="1457" 
d="M771 1372q-152 0 -270.5 -80t-183 -222.5t-64.5 -324.5q0 -193 60 -340t175.5 -229t276.5 -82q176 0 297.5 95.5t169.5 275.5l135 -33q-40 -149 -125 -251t-205 -154t-265 -52q-206 0 -355.5 93t-229 266t-79.5 409q0 222 83.5 391.5t235 263t348.5 93.5
q213 0 358.5 -101t206.5 -292l-135 -33q-51 151 -161.5 229t-272.5 78zM630 1835l139 -184l139 184h132l-197 -266h-148l-197 266h132z" />
    <glyph glyph-name="ccaron" unicode="&#x10d;" horiz-adv-x="1064" 
d="M541 976q-95 0 -171 -50t-119 -150.5t-43 -246.5q0 -132 40.5 -232.5t117 -156.5t181.5 -56q119 0 199.5 67.5t120.5 214.5l129 -24q-50 -184 -163 -275.5t-292 -91.5q-144 0 -249.5 71t-161 197t-55.5 289q0 165 58 290.5t165 194t249 68.5q174 0 279.5 -81.5
t154.5 -241.5l-129 -24q-65 238 -311 238zM401 1466l139 -184l139 184h132l-197 -266h-148l-197 266h132z" />
    <glyph glyph-name="Dcaron" unicode="&#x10e;" horiz-adv-x="1434" 
d="M1326 746q0 -248 -77.5 -415t-218.5 -249t-338 -82h-518v1466h514q205 0 348 -89t216.5 -251t73.5 -380zM1181 750q0 282 -124 436.5t-385 154.5h-359v-1216h359q175 0 287 64.5t167 202t55 358.5zM533 1835l139 -184l139 184h132l-197 -266h-148l-197 266h132z" />
    <glyph glyph-name="dcaron" unicode="&#x10f;" horiz-adv-x="1317" 
d="M993 0h-121v167h-4q-53 -91 -139 -141.5t-197 -50.5q-134 0 -237.5 69.5t-161.5 195.5t-58 290q0 166 56.5 292t158.5 194.5t236 68.5q217 0 332 -180h6v561h129v-1466zM536 976q-99 0 -174 -57.5t-114.5 -158.5t-39.5 -231q0 -134 42 -235t117 -155.5t170 -54.5
q105 0 180.5 53t116 152t40.5 234q0 140 -42 242t-118 156.5t-178 54.5zM1186 1049l-54 71q38 23 56.5 42t26 45.5t8.5 73.5h-81v185h175v-176q0 -85 -32.5 -141.5t-98.5 -99.5z" />
    <glyph glyph-name="Dcroat" unicode="&#x110;" horiz-adv-x="1434" 
d="M174 1466h514q205 0 348 -89t216.5 -251t73.5 -380q0 -248 -77.5 -415.5t-219.5 -249t-337 -81.5h-518v676h-174v110h174v680zM1181 750q0 282 -125 436.5t-384 154.5h-359v-555h457v-110h-457v-551h359q175 0 287 64.5t167 202t55 358.5z" />
    <glyph glyph-name="dcroat" unicode="&#x111;" horiz-adv-x="1132" 
d="M506 1314h358v152h129v-152h139v-102h-139v-1212h-121v167h-4q-53 -91 -139 -141.5t-197 -50.5q-134 0 -237.5 69.5t-161.5 195.5t-58 290q0 166 56.5 292t158.5 194.5t236 68.5q217 0 332 -180h6v307h-358v102zM536 976q-99 0 -174 -57.5t-114.5 -159.5t-39.5 -230
q0 -134 42 -235t117 -155.5t170 -54.5q105 0 180.5 53t116 152t40.5 234q0 140 -42 242t-118 156.5t-178 54.5z" />
    <glyph glyph-name="Emacron" unicode="&#x112;" horiz-adv-x="1192" 
d="M313 1341v-522h691v-125h-691v-569h781v-125h-920v1466h885v-125h-746zM325 1595v110h584v-110h-584z" />
    <glyph glyph-name="emacron" unicode="&#x113;" horiz-adv-x="1081" 
d="M561 84q107 0 185.5 57.5t113.5 159.5l127 -20q-51 -149 -164 -227.5t-271 -78.5q-146 0 -253.5 67t-165.5 191t-58 289q0 173 58.5 300t165.5 195t251 68q160 0 262.5 -75t149.5 -205t47 -299h-801q4 -131 48.5 -226.5t123 -145.5t181.5 -50zM548 977q-92 0 -164 -43
t-116.5 -124.5t-55.5 -195.5h664q-18 180 -101 271.5t-227 91.5zM261 1227v110h584v-110h-584z" />
    <glyph glyph-name="Edotaccent" unicode="&#x116;" horiz-adv-x="1192" 
d="M313 1341v-522h691v-125h-691v-569h781v-125h-920v1466h885v-125h-746zM548 1591v162h138v-162h-138z" />
    <glyph glyph-name="edotaccent" unicode="&#x117;" horiz-adv-x="1081" 
d="M561 84q107 0 185.5 57.5t113.5 159.5l127 -20q-51 -149 -164 -227.5t-271 -78.5q-146 0 -253.5 67t-165.5 191t-58 289q0 173 58.5 300t165.5 195t251 68q160 0 262.5 -75t149.5 -205t47 -299h-801q4 -131 48.5 -226.5t123 -145.5t181.5 -50zM548 977q-92 0 -164 -43
t-116.5 -124.5t-55.5 -195.5h664q-18 180 -101 271.5t-227 91.5zM485 1222v162h138v-162h-138z" />
    <glyph glyph-name="Eogonek" unicode="&#x118;" horiz-adv-x="1192" 
d="M886 -207q0 -38 21.5 -61t64.5 -23q60 0 122 18v-94q-29 -12 -68.5 -19t-72.5 -7q-165 0 -165 166q0 57 21.5 116.5t59.5 110.5h-695v1466h885v-125h-746v-522h691v-125h-691v-569h781v-125h-132q-35 -49 -55.5 -102t-20.5 -105z" />
    <glyph glyph-name="eogonek" unicode="&#x119;" horiz-adv-x="1081" 
d="M860 301l127 -20q-44 -128 -135 -205t-218 -95q-63 -96 -63 -188q0 -38 21.5 -61t64.5 -23q60 0 122 18v-94q-29 -12 -68.5 -19t-72.5 -7q-165 0 -165 166q0 49 17 101.5t47 100.5q-141 3 -245.5 71.5t-160.5 191t-56 284.5q0 173 58.5 300t165.5 195t251 68
q160 0 262.5 -75t149.5 -205t47 -299h-801q4 -131 48.5 -226.5t123 -145.5t181.5 -50q107 0 185.5 57.5t113.5 159.5zM212 614h664q-18 180 -101 271.5t-227 91.5q-92 0 -164 -43t-116.5 -124.5t-55.5 -195.5z" />
    <glyph glyph-name="Ecaron" unicode="&#x11a;" horiz-adv-x="1192" 
d="M313 1341v-522h691v-125h-691v-569h781v-125h-920v1466h885v-125h-746zM474 1835l139 -184l139 184h132l-197 -266h-148l-197 266h132z" />
    <glyph glyph-name="ecaron" unicode="&#x11b;" horiz-adv-x="1081" 
d="M561 84q107 0 185.5 57.5t113.5 159.5l127 -20q-51 -149 -164 -227.5t-271 -78.5q-146 0 -253.5 67t-165.5 191t-58 289q0 173 58.5 300t165.5 195t251 68q160 0 262.5 -75t149.5 -205t47 -299h-801q4 -131 48.5 -226.5t123 -145.5t181.5 -50zM548 977q-92 0 -164 -43
t-116.5 -124.5t-55.5 -195.5h664q-18 180 -101 271.5t-227 91.5zM427 1466l139 -184l139 184h132l-197 -266h-148l-197 266h132z" />
    <glyph glyph-name="Gbreve" unicode="&#x11e;" horiz-adv-x="1532" 
d="M774 1372q-155 0 -273 -78.5t-183 -224t-65 -340.5q0 -199 71.5 -342.5t194.5 -218t273 -74.5q275 0 469 154v358h-465v125h602v-545q-104 -80 -197.5 -126t-191.5 -65.5t-220 -19.5q-195 0 -349.5 90t-243 258.5t-88.5 396.5q0 224 84.5 399.5t234.5 273.5t340 98
q243 0 386.5 -103t218.5 -315l-129 -41q-56 174 -170.5 257t-298.5 83zM790 1674q72 0 112 31.5t55 105.5h105q-14 -113 -85.5 -177.5t-187.5 -64.5q-120 0 -194.5 62t-90.5 180h106q9 -71 53.5 -104t126.5 -33z" />
    <glyph glyph-name="gbreve" unicode="&#x11f;" horiz-adv-x="1126" 
d="M987 1061v-979q0 -257 -111 -384.5t-349 -127.5q-171 0 -273 76.5t-117 216.5l125 -19q19 -83 85 -124.5t177 -41.5q126 0 198.5 44.5t104 139.5t31.5 254v53h-3q-116 -181 -329 -181q-134 0 -236.5 69t-158.5 193t-56 285t56.5 286t158.5 194.5t235 69.5
q113 0 197.5 -49t137.5 -136h6v161h121zM530 977q-97 0 -170 -55.5t-112.5 -155t-39.5 -227.5q0 -134 40.5 -234.5t114 -154.5t171.5 -54q103 0 178.5 54.5t115.5 154.5t40 233t-40.5 232t-117 153t-180.5 54zM551 1305q72 0 112 31.5t55 105.5h105q-14 -113 -85.5 -177.5
t-187.5 -64.5q-120 0 -194.5 62t-90.5 180h106q9 -71 53.5 -104t126.5 -33z" />
    <glyph glyph-name="Gcommaaccent" unicode="&#x122;" horiz-adv-x="1532" 
d="M774 1372q-155 0 -273 -78.5t-183 -224t-65 -340.5q0 -199 71.5 -342.5t194.5 -218t273 -74.5q275 0 469 154v358h-465v125h602v-545q-104 -80 -197.5 -126t-191.5 -65.5t-220 -19.5q-195 0 -349.5 90t-243 258.5t-88.5 396.5q0 224 84.5 399.5t234.5 273.5t340 98
q243 0 386.5 -103t218.5 -315l-129 -41q-56 174 -170.5 257t-298.5 83zM741 -430l-28 80q48 10 69.5 33.5t21.5 64.5h-81v157h175v-149q0 -63 -34 -109.5t-123 -76.5z" />
    <glyph glyph-name="gcommaaccent" unicode="&#x123;" horiz-adv-x="1126" 
d="M987 1061v-979q0 -257 -111 -384.5t-349 -127.5q-171 0 -273 76.5t-117 216.5l125 -19q19 -83 85 -124.5t177 -41.5q126 0 198.5 44.5t104 139.5t31.5 254v53h-3q-116 -181 -329 -181q-134 0 -236.5 69t-158.5 193t-56 285t56.5 286t158.5 194.5t235 69.5
q113 0 197.5 -49t137.5 -136h6v161h121zM530 977q-97 0 -170 -55.5t-112.5 -155t-39.5 -227.5q0 -134 40.5 -234.5t114 -154.5t171.5 -54q103 0 178.5 54.5t115.5 154.5t40 233t-40.5 232t-117 153t-180.5 54zM610 1530l28 -80q-50 -11 -70.5 -36t-20.5 -72h81v-157h-175
v151q0 74 36.5 122t120.5 72z" />
    <glyph glyph-name="Imacron" unicode="&#x12a;" horiz-adv-x="487" 
d="M174 0v1466h139v-1466h-139zM-49 1595v110h584v-110h-584z" />
    <glyph glyph-name="imacron" unicode="&#x12b;" horiz-adv-x="407" 
d="M268 0h-129v1061h129v-1061zM-93 1227v110h584v-110h-584z" />
    <glyph glyph-name="Iogonek" unicode="&#x12e;" horiz-adv-x="487" 
d="M399 -273v-94q-29 -12 -68.5 -19t-72.5 -7q-165 0 -165 166q0 57 21.5 116.5t59.5 110.5v1466h139v-1466h-46q-35 -49 -55.5 -102t-20.5 -105q0 -38 21.5 -61t64.5 -23q60 0 122 18z" />
    <glyph glyph-name="iogonek" unicode="&#x12f;" horiz-adv-x="407" 
d="M139 1288v178h129v-178h-129zM363 -273v-94q-29 -12 -68.5 -19t-72.5 -7q-165 0 -165 166q0 56 22 116t60 112v1060h129v-1061h-37q-35 -49 -55.5 -102t-20.5 -105q0 -38 21.5 -61t64.5 -23q60 0 122 18z" />
    <glyph glyph-name="Idotaccent" unicode="&#x130;" horiz-adv-x="487" 
d="M174 0v1466h139v-1466h-139zM174 1591v162h138v-162h-138z" />
    <glyph glyph-name="dotlessi" unicode="&#x131;" horiz-adv-x="407" 
d="M268 0h-129v1061h129v-1061z" />
    <glyph glyph-name="Kcommaaccent" unicode="&#x136;" horiz-adv-x="1246" 
d="M1038 1466h176l-566 -592l593 -874h-169l-519 785l-240 -242v-543h-139v1466h139v-761zM571 -430l-28 80q48 10 69.5 33.5t21.5 64.5h-81v157h175v-149q0 -63 -34 -109.5t-123 -76.5z" />
    <glyph glyph-name="kcommaaccent" unicode="&#x137;" horiz-adv-x="1006" 
d="M287 586l492 475h166l-416 -401l449 -660h-162l-380 578l-149 -139v-439h-129v1466h129v-880zM451 -430l-28 80q48 10 69.5 33.5t21.5 64.5h-81v157h175v-149q0 -63 -34 -109.5t-123 -76.5z" />
    <glyph glyph-name="Lacute" unicode="&#x139;" horiz-adv-x="1088" 
d="M1013 125v-125h-839v1466h139v-1341h700zM156 1569l153 266h175l-225 -266h-103z" />
    <glyph glyph-name="lacute" unicode="&#x13a;" horiz-adv-x="407" 
d="M139 0v1466h129v-1466h-129zM135 1569l153 266h175l-225 -266h-103z" />
    <glyph glyph-name="Lcommaaccent" unicode="&#x13b;" horiz-adv-x="1088" 
d="M1013 125v-125h-839v1466h139v-1341h700zM491 -430l-28 80q48 10 69.5 33.5t21.5 64.5h-81v157h175v-149q0 -63 -34 -109.5t-123 -76.5z" />
    <glyph glyph-name="lcommaaccent" unicode="&#x13c;" horiz-adv-x="407" 
d="M139 0v1466h129v-1466h-129zM133 -430l-28 80q48 10 69.5 33.5t21.5 64.5h-81v157h175v-149q0 -63 -34 -109.5t-123 -76.5z" />
    <glyph glyph-name="Lcaron" unicode="&#x13d;" horiz-adv-x="1088" 
d="M1013 125v-125h-839v1466h139v-1341h700zM634 1049l-54 71q38 23 56.5 42t26 45.5t8.5 73.5h-81v185h175v-176q0 -85 -32.5 -141.5t-98.5 -99.5z" />
    <glyph glyph-name="lcaron" unicode="&#x13e;" horiz-adv-x="592" 
d="M139 0v1466h129v-1466h-129zM461 1049l-54 71q38 23 56.5 42t26 45.5t8.5 73.5h-81v185h175v-176q0 -85 -32.5 -141.5t-98.5 -99.5z" />
    <glyph glyph-name="Lslash" unicode="&#x141;" horiz-adv-x="1088" 
d="M1013 0h-839v620l-174 -149v114l174 149v732h139v-622l336 284v-114l-336 -284v-605h700v-125z" />
    <glyph glyph-name="lslash" unicode="&#x142;" horiz-adv-x="407" 
d="M407 958v-108l-139 -113v-737h-129v637l-139 -112v108l139 112v721h129v-621z" />
    <glyph glyph-name="Nacute" unicode="&#x143;" horiz-adv-x="1423" 
d="M1121 214v1252h128v-1466h-149l-794 1245h-4v-1245h-128v1466h140l800 -1252h7zM644 1569l153 266h175l-225 -266h-103z" />
    <glyph glyph-name="nacute" unicode="&#x144;" horiz-adv-x="1096" 
d="M832 708q0 128 -65 196.5t-187 68.5q-92 0 -164.5 -45.5t-110.5 -122.5q-37 -73 -37 -212v-593h-129v1061h121v-169q54 92 142 142.5t195 50.5q174 0 269 -93.5t95 -265.5v-726h-129v708zM477 1200l153 266h175l-225 -266h-103z" />
    <glyph glyph-name="Ncommaaccent" unicode="&#x145;" horiz-adv-x="1423" 
d="M1121 214v1252h128v-1466h-149l-794 1245h-4v-1245h-128v1466h140l800 -1252h7zM621 -430l-28 80q48 10 69.5 33.5t21.5 64.5h-81v157h175v-149q0 -63 -34 -109.5t-123 -76.5z" />
    <glyph glyph-name="ncommaaccent" unicode="&#x146;" horiz-adv-x="1096" 
d="M832 708q0 128 -65 196.5t-187 68.5q-92 0 -164.5 -45.5t-110.5 -122.5q-37 -73 -37 -212v-593h-129v1061h121v-169q54 92 142 142.5t195 50.5q174 0 269 -93.5t95 -265.5v-726h-129v708zM461 -430l-28 80q48 10 69.5 33.5t21.5 64.5h-81v157h175v-149q0 -63 -34 -109.5
t-123 -76.5z" />
    <glyph glyph-name="Ncaron" unicode="&#x147;" horiz-adv-x="1423" 
d="M1121 214v1252h128v-1466h-149l-794 1245h-4v-1245h-128v1466h140l800 -1252h7zM597 1835l139 -184l139 184h132l-197 -266h-148l-197 266h132z" />
    <glyph glyph-name="ncaron" unicode="&#x148;" horiz-adv-x="1096" 
d="M832 708q0 128 -65 196.5t-187 68.5q-92 0 -164.5 -45.5t-110.5 -122.5q-37 -73 -37 -212v-593h-129v1061h121v-169q54 92 142 142.5t195 50.5q174 0 269 -93.5t95 -265.5v-726h-129v708zM432 1466l139 -184l139 184h132l-197 -266h-148l-197 266h132z" />
    <glyph glyph-name="Omacron" unicode="&#x14c;" horiz-adv-x="1584" 
d="M108 731q0 229 88 401t244.5 265.5t351.5 93.5q197 0 352.5 -93t243.5 -265t88 -400q0 -225 -88.5 -397.5t-244.5 -266.5t-351 -94q-194 0 -349.5 93t-245 264.5t-89.5 398.5zM790 1372q-152 0 -275 -76t-192.5 -222t-69.5 -347q0 -205 75 -348t198 -214t264 -71
q154 0 277 75.5t193.5 219.5t70.5 340t-69.5 342t-192 223.5t-279.5 77.5zM505 1595v110h584v-110h-584z" />
    <glyph glyph-name="omacron" unicode="&#x14d;" horiz-adv-x="1102" 
d="M75 530q0 178 60 303t167 188.5t248 63.5q143 0 250.5 -63.5t167 -188t59.5 -301.5t-59 -302.5t-166.5 -190t-251.5 -64.5q-141 0 -248.5 64t-167 190t-59.5 301zM548 976q-99 0 -175.5 -50t-120.5 -150.5t-44 -245.5q0 -147 43.5 -247t120 -149.5t178.5 -49.5
q101 0 178.5 49.5t121.5 150t44 248.5q0 142 -43.5 241.5t-121.5 151t-181 51.5zM262 1227v110h584v-110h-584z" />
    <glyph glyph-name="Ohungarumlaut" unicode="&#x150;" horiz-adv-x="1584" 
d="M108 731q0 229 88 401t244.5 265.5t351.5 93.5q197 0 352.5 -93t243.5 -265t88 -400q0 -225 -88.5 -397.5t-244.5 -266.5t-351 -94q-194 0 -349.5 93t-245 264.5t-89.5 398.5zM790 1372q-152 0 -275 -76t-192.5 -222t-69.5 -347q0 -205 75 -348t198 -214t264 -71
q154 0 277 75.5t193.5 219.5t70.5 340t-69.5 342t-192 223.5t-279.5 77.5zM558 1569l153 266h175l-225 -266h-103zM823 1569l153 266h175l-225 -266h-103z" />
    <glyph glyph-name="ohungarumlaut" unicode="&#x151;" horiz-adv-x="1102" 
d="M75 530q0 178 60 303t167 188.5t248 63.5q143 0 250.5 -63.5t167 -188t59.5 -301.5t-59 -302.5t-166.5 -190t-251.5 -64.5q-141 0 -248.5 64t-167 190t-59.5 301zM548 976q-99 0 -175.5 -50t-120.5 -150.5t-44 -245.5q0 -147 43.5 -247t120 -149.5t178.5 -49.5
q101 0 178.5 49.5t121.5 150t44 248.5q0 142 -43.5 241.5t-121.5 151t-181 51.5zM345 1200l153 266h175l-225 -266h-103zM610 1200l153 266h175l-225 -266h-103z" />
    <glyph glyph-name="Racute" unicode="&#x154;" horiz-adv-x="1296" 
d="M1178 1071q0 -159 -91 -258t-261 -129v-6q42 -12 79.5 -46t83.5 -108t110 -206l154 -318h-155l-115 245q-78 165 -137.5 251t-132 124.5t-182.5 38.5h-218v-659h-139v1466h535q147 0 252.5 -46t161 -134.5t55.5 -214.5zM1032 1065q0 140 -82 208t-249 68h-388v-557h381
q164 0 251 71t87 210zM532 1569l153 266h175l-225 -266h-103z" />
    <glyph glyph-name="racute" unicode="&#x155;" horiz-adv-x="688" 
d="M520 956q-81 0 -138 -49t-85.5 -136.5t-28.5 -202.5v-568h-129v1061h121v-169l2 1q50 98 112 145t152 47q43 0 80 -9.5t84 -33.5l-43 -120q-70 34 -127 34zM330 1200l153 266h175l-225 -266h-103z" />
    <glyph glyph-name="Rcommaaccent" unicode="&#x156;" horiz-adv-x="1296" 
d="M1178 1071q0 -159 -91 -258t-261 -129v-6q42 -12 79.5 -46t83.5 -108t110 -206l154 -318h-155l-115 245q-78 165 -137.5 251t-132 124.5t-182.5 38.5h-218v-659h-139v1466h535q147 0 252.5 -46t161 -134.5t55.5 -214.5zM1032 1065q0 140 -82 208t-249 68h-388v-557h381
q164 0 251 71t87 210zM606 -430l-28 80q48 10 69.5 33.5t21.5 64.5h-81v157h175v-149q0 -63 -34 -109.5t-123 -76.5z" />
    <glyph glyph-name="rcommaaccent" unicode="&#x157;" horiz-adv-x="688" 
d="M520 956q-81 0 -138 -49t-85.5 -136.5t-28.5 -202.5v-568h-129v1061h121v-169l2 1q50 98 112 145t152 47q43 0 80 -9.5t84 -33.5l-43 -120q-70 34 -127 34zM137 -430l-28 80q48 10 69.5 33.5t21.5 64.5h-81v157h175v-149q0 -63 -34 -109.5t-123 -76.5z" />
    <glyph glyph-name="Rcaron" unicode="&#x158;" horiz-adv-x="1296" 
d="M1178 1071q0 -159 -91 -258t-261 -129v-6q42 -12 79.5 -46t83.5 -108t110 -206l154 -318h-155l-115 245q-78 165 -137.5 251t-132 124.5t-182.5 38.5h-218v-659h-139v1466h535q147 0 252.5 -46t161 -134.5t55.5 -214.5zM1032 1065q0 140 -82 208t-249 68h-388v-557h381
q164 0 251 71t87 210zM494 1835l139 -184l139 184h132l-197 -266h-148l-197 266h132z" />
    <glyph glyph-name="rcaron" unicode="&#x159;" horiz-adv-x="688" 
d="M520 956q-81 0 -138 -49t-85.5 -136.5t-28.5 -202.5v-568h-129v1061h121v-169l2 1q50 98 112 145t152 47q43 0 80 -9.5t84 -33.5l-43 -120q-70 34 -127 34zM280 1466l139 -184l139 184h132l-197 -266h-148l-197 266h132z" />
    <glyph glyph-name="Sacute" unicode="&#x15a;" horiz-adv-x="1251" 
d="M626 1372q-99 0 -176.5 -33.5t-119.5 -92t-42 -134.5q0 -108 78 -175t252 -102q182 -37 295.5 -85t175 -130t61.5 -213q0 -119 -60.5 -217.5t-177.5 -156.5t-280 -58q-153 0 -270 58.5t-186 163.5t-86 243l134 21v-1q19 -113 73.5 -195.5t138 -126.5t187.5 -44
q113 0 201 37t137.5 105.5t49.5 160.5q0 76 -34.5 130t-124.5 96t-254 73q-162 30 -260.5 83.5t-143.5 132.5t-45 188q0 110 58 200t164 140.5t244 50.5q232 0 357 -106t135 -306l-131 -14q-10 151 -100.5 229t-249.5 78zM534 1569l153 266h175l-225 -266h-103z" />
    <glyph glyph-name="sacute" unicode="&#x15b;" horiz-adv-x="961" 
d="M460 976q-68 0 -121 -21t-82.5 -59.5t-29.5 -90.5q0 -55 24.5 -90.5t84 -60t167.5 -43.5q135 -25 216.5 -64t119.5 -99t38 -149q0 -93 -49.5 -166.5t-138.5 -115.5t-203 -42q-172 0 -276 77t-134 229l127 20q46 -217 282 -217q80 0 138.5 25.5t90 71t31.5 103.5
q0 63 -31 102t-97 63t-182 45q-168 29 -250.5 100.5t-82.5 197.5q0 84 44 150.5t125 104.5t189 38q154 0 252.5 -65.5t130.5 -192.5l-126 -18q-18 80 -84.5 123.5t-172.5 43.5zM420 1200l153 266h175l-225 -266h-103z" />
    <glyph glyph-name="Scedilla" unicode="&#x15e;" horiz-adv-x="1251" 
d="M662 -24l-19 -66q171 -20 171 -148q0 -79 -70 -123.5t-218 -44.5q-24 0 -52 2t-38 4l8 87q44 -4 81 -4q79 0 119 21t40 67q0 37 -35.5 60.5t-109.5 23.5l35 122q-137 11 -241 71.5t-165.5 161t-77.5 230.5l134 21v-1q19 -113 73.5 -195.5t138 -126.5t187.5 -44
q113 0 201 37t137.5 105.5t49.5 160.5q0 76 -34.5 130t-124.5 96t-254 73q-162 30 -260.5 83.5t-143.5 132.5t-45 188q0 112 58 201t163.5 139.5t244.5 50.5q232 0 357 -106t135 -306l-131 -14q-10 151 -100.5 229t-249.5 78q-101 0 -177.5 -33t-118.5 -92t-42 -135
q0 -108 78 -175t252 -102q182 -37 295.5 -85t175 -130t61.5 -213q0 -116 -56.5 -212t-167 -155t-264.5 -64z" />
    <glyph glyph-name="scedilla" unicode="&#x15f;" horiz-adv-x="961" 
d="M517 -24l-19 -66q171 -20 171 -148q0 -79 -70 -123.5t-218 -44.5q-24 0 -52 2t-38 4l8 87q44 -4 81 -4q79 0 119 21t40 67q0 37 -35.5 60.5t-109.5 23.5l35 122q-147 12 -236 88.5t-117 215.5l127 20q46 -217 282 -217q80 0 138.5 25.5t90 71t31.5 103.5q0 63 -31 102
t-97 63t-182 45q-168 29 -250.5 100.5t-82.5 197.5q0 84 44 150.5t125 104.5t189 38q154 0 252.5 -65.5t130.5 -192.5l-126 -18q-18 80 -84.5 123.5t-172.5 43.5q-68 0 -121 -21t-82.5 -59.5t-29.5 -90.5q0 -55 24.5 -90t84 -59.5t167.5 -44.5q135 -25 216.5 -64t119.5 -99
t38 -149t-45.5 -160t-127 -114t-187.5 -49z" />
    <glyph glyph-name="Tcommaaccent" unicode="&#x162;" 
d="M593 -90q171 -20 171 -148q0 -79 -70 -123.5t-218 -44.5q-24 0 -52 2t-38 4l8 87q44 -4 81 -4q79 0 119 21t40 67q0 37 -35.5 60.5t-109.5 23.5l42 145h-31v1341h-448v125h1035v-125h-448v-1341h-20z" />
    <glyph glyph-name="tcommaaccent" unicode="&#x163;" horiz-adv-x="596" 
d="M544 -238q0 -79 -70 -123.5t-218 -44.5q-24 0 -52 2t-38 4l8 87q44 -4 81 -4q79 0 119 21t40 67q0 37 -35.5 60.5t-109.5 23.5l42 146q-48 15 -73.5 48.5t-35 86t-9.5 135.5v685h-152v105h152v254l129 92v-346h200v-105h-200v-696q0 -68 11.5 -102.5t36 -46t68.5 -11.5
q45 0 90 13l18 -111q-85 -14 -130 -14h-20l-23 -78q171 -20 171 -148z" />
    <glyph glyph-name="Tcaron" unicode="&#x164;" 
d="M639 1341v-1341h-139v1341h-448v125h1035v-125h-448zM432 1835l139 -184l139 184h132l-197 -266h-148l-197 266h132z" />
    <glyph glyph-name="tcaron" unicode="&#x165;" horiz-adv-x="635" 
d="M522 1061v-105h-200v-696q0 -68 11.5 -102.5t36 -46t68.5 -11.5q45 0 90 13l18 -111q-85 -14 -130 -14q-94 0 -142 29t-64.5 88.5t-16.5 165.5v685h-152v105h152v254l129 92v-346h200zM504 1093l-54 71q38 23 56.5 42t26 45.5t8.5 73.5h-81v185h175v-176
q0 -85 -32.5 -141.5t-98.5 -99.5z" />
    <glyph glyph-name="glyph292" 
d="M639 1341v-1341h-139v1341h-448v125h1035v-125h-448zM501 -430l-28 80q48 10 69.5 33.5t21.5 64.5h-81v157h175v-149q0 -63 -34 -109.5t-123 -76.5z" />
    <glyph glyph-name="glyph293" horiz-adv-x="596" 
d="M522 1061v-105h-200v-696q0 -68 11.5 -102.5t36 -46t68.5 -11.5q45 0 90 13l18 -111q-85 -14 -130 -14q-94 0 -142 29t-64.5 88.5t-16.5 165.5v685h-152v105h152v254l129 92v-346h200zM301 -430l-28 80q48 10 69.5 33.5t21.5 64.5h-81v157h175v-149q0 -63 -34 -109.5
t-123 -76.5z" />
    <glyph glyph-name="Umacron" unicode="&#x16a;" horiz-adv-x="1424" 
d="M714 94q199 0 302 108t103 313v951h139v-947q0 -268 -137 -406t-405 -138q-279 0 -414.5 135t-135.5 408v948h139v-949q0 -218 103.5 -320.5t305.5 -102.5zM436 1595v110h584v-110h-584z" />
    <glyph glyph-name="umacron" unicode="&#x16b;" horiz-adv-x="1096" 
d="M509 88q151 0 234.5 98t83.5 282v593h129v-1061h-121v170q-55 -93 -143.5 -144t-194.5 -51q-175 0 -268.5 94.5t-93.5 265.5v726h129v-709q0 -127 61.5 -195.5t183.5 -68.5zM253 1227v110h584v-110h-584z" />
    <glyph glyph-name="Uring" unicode="&#x16e;" horiz-adv-x="1424" 
d="M714 94q199 0 302 108t103 313v951h139v-947q0 -268 -137 -406t-405 -138q-279 0 -414.5 135t-135.5 408v948h139v-949q0 -218 103.5 -320.5t305.5 -102.5zM721 1882q49 0 90 -24t65 -65t24 -90t-24 -90t-65 -65t-90 -24t-90 24t-65 65t-24 90t24 90t65 65t90 24z
M721 1589q47 0 80.5 33.5t33.5 80.5t-33.5 80.5t-80.5 33.5q-46 0 -80 -33.5t-34 -80.5t33.5 -80.5t80.5 -33.5z" />
    <glyph glyph-name="uring" unicode="&#x16f;" horiz-adv-x="1096" 
d="M509 88q151 0 234.5 98t83.5 282v593h129v-1061h-121v170q-55 -93 -143.5 -144t-194.5 -51q-175 0 -268.5 94.5t-93.5 265.5v726h129v-709q0 -127 61.5 -195.5t183.5 -68.5zM540 1513q49 0 90 -24t65 -65t24 -90t-24 -90t-65 -65t-90 -24t-90 24t-65 65t-24 90t24 90
t65 65t90 24zM540 1220q47 0 80.5 33.5t33.5 80.5t-33.5 80.5t-80.5 33.5q-46 0 -80 -33.5t-34 -80.5t33.5 -80.5t80.5 -33.5z" />
    <glyph glyph-name="Uhungarumlaut" unicode="&#x170;" horiz-adv-x="1424" 
d="M714 94q199 0 302 108t103 313v951h139v-947q0 -268 -137 -406t-405 -138q-279 0 -414.5 135t-135.5 408v948h139v-949q0 -218 103.5 -320.5t305.5 -102.5zM497 1569l153 266h175l-225 -266h-103zM762 1569l153 266h175l-225 -266h-103z" />
    <glyph glyph-name="uhungarumlaut" unicode="&#x171;" horiz-adv-x="1096" 
d="M509 88q151 0 234.5 98t83.5 282v593h129v-1061h-121v170q-55 -93 -143.5 -144t-194.5 -51q-175 0 -268.5 94.5t-93.5 265.5v726h129v-709q0 -127 61.5 -195.5t183.5 -68.5zM337 1200l153 266h175l-225 -266h-103zM602 1200l153 266h175l-225 -266h-103z" />
    <glyph glyph-name="Uogonek" unicode="&#x172;" horiz-adv-x="1424" 
d="M1258 519q0 -240 -111.5 -377t-331.5 -162q-29 -45 -45.5 -93t-16.5 -94q0 -38 21.5 -61t64.5 -23q60 0 122 18v-94q-29 -12 -68.5 -19t-72.5 -7q-165 0 -165 166q0 49 17 101.5t47 100.5h-3q-279 0 -414.5 135t-135.5 408v948h139v-949q0 -218 103.5 -320.5
t305.5 -102.5q199 0 302 108t103 313v951h139v-947z" />
    <glyph glyph-name="uogonek" unicode="&#x173;" horiz-adv-x="1096" 
d="M1057 -273v-94q-29 -12 -68.5 -19t-72.5 -7q-165 0 -165 166q0 57 22.5 118t61.5 113v166q-55 -93 -143.5 -144t-194.5 -51q-175 0 -268.5 94.5t-93.5 265.5v726h129v-709q0 -127 61.5 -195.5t183.5 -68.5q151 0 234.5 98t83.5 282v593h129v-1061h-31q-35 -49 -55.5 -102
t-20.5 -105q0 -38 21.5 -61t64.5 -23q60 0 122 18z" />
    <glyph glyph-name="Zacute" unicode="&#x179;" horiz-adv-x="1199" 
d="M201 125h948v-125h-1101v129l907 1212h-833v125h996v-120zM506 1569l153 266h175l-225 -266h-103z" />
    <glyph glyph-name="zacute" unicode="&#x17a;" horiz-adv-x="929" 
d="M203 109h681v-109h-834v109l634 847h-593v105h760v-84zM377 1200l153 266h175l-225 -266h-103z" />
    <glyph glyph-name="Zdotaccent" unicode="&#x17b;" horiz-adv-x="1199" 
d="M201 125h948v-125h-1101v129l907 1212h-833v125h996v-120zM539 1591v162h138v-162h-138z" />
    <glyph glyph-name="zdotaccent" unicode="&#x17c;" horiz-adv-x="929" 
d="M203 109h681v-109h-834v109l634 847h-593v105h760v-84zM391 1222v162h138v-162h-138z" />
    <glyph glyph-name="Ohorn" unicode="&#x1a0;" horiz-adv-x="1584" 
d="M108 731q0 229 88 401t243.5 265.5t352.5 93.5q141 0 263 -49.5t213 -141.5q72 2 113.5 30.5t59.5 89t18 164.5h131q0 -167 -58 -262t-186 -118q63 -95 96.5 -214t33.5 -257q0 -225 -88.5 -397.5t-244.5 -266.5t-351 -94q-194 0 -349.5 93t-245 264.5t-89.5 398.5z
M790 1372q-154 0 -276 -76.5t-191.5 -222.5t-69.5 -346q0 -205 75 -348t198 -214t264 -71q154 0 277 75.5t193.5 219.5t70.5 340t-69.5 342t-192 223.5t-279.5 77.5z" />
    <glyph glyph-name="ohorn" unicode="&#x1a1;" horiz-adv-x="1177" 
d="M75 530q0 178 60 303t167 188.5t248 63.5q122 0 218.5 -47t159.5 -137q52 11 82 42.5t43 88.5t13 147h131q0 -159 -52 -252t-166 -122q48 -118 48 -273q0 -177 -59 -302.5t-166.5 -190t-251.5 -64.5q-141 0 -248.5 64t-167 189t-59.5 302zM548 976q-99 0 -175.5 -50
t-120.5 -150.5t-44 -245.5q0 -147 43.5 -247t120 -149.5t178.5 -49.5q101 0 178.5 49.5t121.5 150t44 248.5q0 142 -43.5 241.5t-121.5 151t-181 51.5z" />
    <glyph glyph-name="Uhorn" unicode="&#x1af;" horiz-adv-x="1531" 
d="M714 94q199 0 302 108t103 313v951h139v-166q77 0 118 27.5t57.5 88t16.5 168.5h131q0 -196 -74.5 -291.5t-248.5 -95.5v-678q0 -266 -137 -405t-405 -139q-279 0 -414.5 135t-135.5 408v948h139v-949q0 -218 103.5 -320.5t305.5 -102.5z" />
    <glyph glyph-name="uhorn" unicode="&#x1b0;" horiz-adv-x="1259" 
d="M509 88q151 0 234.5 98t83.5 282v593h129v-166q77 0 118 27.5t57.5 88t16.5 168.5h131q0 -197 -74.5 -292t-248.5 -95v-792h-121v170q-55 -93 -143.5 -144t-194.5 -51q-175 0 -268.5 94.5t-93.5 265.5v726h129v-709q0 -127 61.5 -195.5t183.5 -68.5z" />
    <glyph glyph-name="caron" unicode="&#x2c7;" horiz-adv-x="682" 
d="M202 1466l139 -184l139 184h132l-197 -266h-148l-197 266h132z" />
    <glyph glyph-name="breve" unicode="&#x2d8;" horiz-adv-x="682" 
d="M348 1305q72 0 112 31.5t55 105.5h105q-14 -113 -85.5 -177.5t-187.5 -64.5q-120 0 -194.5 62t-90.5 180h106q9 -71 53.5 -104t126.5 -33z" />
    <glyph glyph-name="dotaccent" unicode="&#x2d9;" horiz-adv-x="682" 
d="M272 1222v162h138v-162h-138z" />
    <glyph glyph-name="glyph313" horiz-adv-x="682" 
d="M341 1513q49 0 90 -24t65 -65t24 -90t-24 -90t-65 -65t-90 -24t-90 24t-65 65t-24 90t24 90t65 65t90 24zM341 1220q47 0 80.5 33.5t33.5 80.5t-33.5 80.5t-80.5 33.5q-46 0 -80 -33.5t-34 -80.5t33.5 -80.5t80.5 -33.5z" />
    <glyph glyph-name="ogonek" unicode="&#x2db;" horiz-adv-x="682" 
d="M385 -393q-165 0 -165 166q0 60 25 124t67 117h92q-40 -53 -63 -110t-23 -111q0 -38 21.5 -61t64.5 -23q60 0 122 18v-94q-29 -12 -68.5 -19t-72.5 -7z" />
    <glyph glyph-name="hungarumlaut" unicode="&#x2dd;" horiz-adv-x="682" 
d="M137 1200l153 266h175l-225 -266h-103zM402 1200l153 266h175l-225 -266h-103z" />
    <glyph glyph-name="gravecomb" unicode="&#x300;" horiz-adv-x="0" 
d="M-530 1200l-225 266h174l154 -266h-103z" />
    <glyph glyph-name="acutecomb" unicode="&#x301;" horiz-adv-x="0" 
d="M-655 1200l153 266h175l-225 -266h-103z" />
    <glyph glyph-name="tildecomb" unicode="&#x303;" horiz-adv-x="0" 
d="M-407 1230q-34 0 -68 9t-76 31q-48 25 -72.5 34t-44.5 9q-29 0 -42.5 -20t-16.5 -63h-105q5 97 44.5 142.5t114.5 45.5q67 0 142 -40q49 -26 73 -34.5t44 -8.5q29 0 42.5 19.5t16.5 63.5h105q-5 -91 -44 -139.5t-113 -48.5z" />
    <glyph glyph-name="hookabovecomb" unicode="&#x309;" horiz-adv-x="0" 
d="M-498 1375q0 32 -30.5 48.5t-86.5 16.5q-44 0 -88 -4l-8 87q21 3 45.5 4.5t53.5 1.5q123 0 183.5 -37.5t60.5 -108.5q0 -64 -45.5 -99t-135.5 -45v-39h-88v104q77 0 108 16t31 55z" />
    <glyph glyph-name="dotbelowcomb" unicode="&#x323;" horiz-adv-x="0" 
d="M-610 -328v162h138v-162h-138z" />
    <glyph glyph-name="tonos" unicode="&#x384;" horiz-adv-x="682" 
d="M258 1194l123 272h175l-195 -272h-103z" />
    <glyph glyph-name="dieresistonos" unicode="&#x385;" horiz-adv-x="682" 
d="M258 1204l63 272h155l-135 -272h-83zM218 1232h-123v162h123v-162zM587 1232h-123v162h123v-162z" />
    <glyph glyph-name="Alphatonos" unicode="&#x386;" horiz-adv-x="1323" 
d="M1165 0l-182 465h-661l-172 -465h-146l561 1466h160l594 -1466h-154zM535 1038l-172 -458h575l-178 452q-59 147 -115 328h-4q-17 -62 -45.5 -149.5t-60.5 -172.5zM0 1194l123 272h175l-195 -272h-103z" />
    <glyph glyph-name="Epsilontonos" unicode="&#x388;" horiz-adv-x="1416" 
d="M0 1194l123 272h175l-195 -272h-103zM537 1341v-522h691v-125h-691v-569h781v-125h-920v1466h885v-125h-746z" />
    <glyph glyph-name="Etatonos" unicode="&#x389;" horiz-adv-x="1645" 
d="M0 1194l123 272h175l-195 -272h-103zM1332 842v624h139v-1466h-139v717h-795v-717h-139v1466h139v-624h795z" />
    <glyph glyph-name="Iotatonos" unicode="&#x38a;" horiz-adv-x="711" 
d="M0 1194l123 272h175l-195 -272h-103zM398 0v1466h139v-1466h-139z" />
    <glyph glyph-name="Omicrontonos" unicode="&#x38c;" horiz-adv-x="1688" 
d="M0 1194l123 272h175l-195 -272h-103zM212 731q0 229 88 401t244.5 265.5t351.5 93.5q197 0 352.5 -93t243.5 -265t88 -400q0 -225 -88.5 -397.5t-244.5 -266.5t-351 -94q-194 0 -349.5 93t-245 264.5t-89.5 398.5zM894 1372q-152 0 -275 -76t-192.5 -222t-69.5 -347
q0 -205 75 -348t198 -214t264 -71q154 0 277 75.5t193.5 219.5t70.5 340t-69.5 342t-192 223.5t-279.5 77.5z" />
    <glyph glyph-name="Upsilontonos" unicode="&#x38e;" horiz-adv-x="1525" 
d="M0 1194l123 272h175l-195 -272h-103zM1360 1466h153l-538 -833v-633h-139v633l-520 833h159l439 -709z" />
    <glyph glyph-name="Omegatonos" unicode="&#x38f;" horiz-adv-x="1655" 
d="M0 1194l123 272h175l-195 -272h-103zM978 0v115q185 126 286.5 288.5t101.5 386.5q0 175 -67.5 307.5t-182 203.5t-251.5 71q-152 0 -266 -72.5t-175 -204t-61 -303.5q0 -218 99 -382t291 -295v-115h-549v125h375q-112 70 -193.5 176t-124.5 233t-43 260
q0 201 84.5 359.5t232 248t330.5 89.5q193 0 340 -96t226.5 -255.5t79.5 -345.5q0 -127 -43.5 -254.5t-125 -235.5t-190.5 -179h373v-125h-547z" />
    <glyph glyph-name="iotadieresistonos" unicode="&#x390;" horiz-adv-x="468" 
d="M361 86q45 0 88 15l24 -101q-23 -10 -56.5 -16.5t-65.5 -6.5q-116 0 -164 57t-48 183v844h129v-838q0 -55 10 -84.5t29 -41t54 -11.5zM126 1204l63 272h155l-135 -272h-83zM86 1232h-123v162h123v-162zM455 1232h-123v162h123v-162z" />
    <glyph glyph-name="Alpha" unicode="&#x391;" horiz-adv-x="1323" 
d="M1165 0l-182 465h-661l-172 -465h-146l561 1466h160l594 -1466h-154zM535 1038l-172 -458h575l-178 452q-59 147 -115 328h-4q-17 -62 -45.5 -149.5t-60.5 -172.5z" />
    <glyph glyph-name="Beta" unicode="&#x392;" horiz-adv-x="1313" 
d="M1142 1094q0 -215 -211 -322q152 -50 216 -140.5t64 -218.5q0 -117 -55.5 -211.5t-158.5 -148t-239 -53.5h-584v1466h523q142 0 242 -44.5t151.5 -128t51.5 -199.5zM1000 1088q0 126 -77 189.5t-250 63.5h-360v-520h401q86 0 151 33t100 93.5t35 140.5zM1066 412
q0 88 -39 152.5t-111 99t-168 34.5h-435v-573h430q155 0 239 76.5t84 210.5z" />
    <glyph glyph-name="Gamma" unicode="&#x393;" horiz-adv-x="1035" 
d="M983 1466v-125h-670v-1341h-139v1466h809z" />
    <glyph glyph-name="Delta" unicode="&#x394;" horiz-adv-x="1325" 
d="M1282 0h-1240v95l525 1371h160l555 -1371v-95zM537 1038l-340 -913h921l-356 907q-64 164 -115 328h-4q-35 -130 -106 -322z" />
    <glyph glyph-name="Epsilon" unicode="&#x395;" horiz-adv-x="1192" 
d="M313 1341v-522h691v-125h-691v-569h781v-125h-920v1466h885v-125h-746z" />
    <glyph glyph-name="Zeta" unicode="&#x396;" horiz-adv-x="1199" 
d="M201 125h948v-125h-1101v129l907 1212h-833v125h996v-120z" />
    <glyph glyph-name="Eta" unicode="&#x397;" horiz-adv-x="1421" 
d="M1108 842v624h139v-1466h-139v717h-795v-717h-139v1466h139v-624h795z" />
    <glyph glyph-name="Theta" unicode="&#x398;" horiz-adv-x="1584" 
d="M108 731q0 229 88 401t244.5 265.5t351.5 93.5q197 0 352.5 -93t243.5 -265t88 -400q0 -225 -88.5 -397.5t-244.5 -266.5t-351 -94q-194 0 -349.5 93t-245 264.5t-89.5 398.5zM790 1372q-154 0 -276 -76.5t-191.5 -222.5t-69.5 -346q0 -203 75 -347t198 -215t264 -71
q154 0 277 75.5t193.5 219.5t70.5 340t-69.5 342t-192 223.5t-279.5 77.5zM1176 692h-768v125h768v-125z" />
    <glyph glyph-name="Iota" unicode="&#x399;" horiz-adv-x="487" 
d="M174 0v1466h139v-1466h-139z" />
    <glyph glyph-name="Kappa" unicode="&#x39a;" horiz-adv-x="1246" 
d="M1038 1466h176l-566 -592l593 -874h-169l-519 785l-240 -242v-543h-139v1466h139v-761z" />
    <glyph glyph-name="Lambda" unicode="&#x39b;" horiz-adv-x="1251" 
d="M626 1316l-477 -1316h-137l547 1466h143l537 -1466h-148l-461 1316h-4z" />
    <glyph glyph-name="Mu" unicode="&#x39c;" horiz-adv-x="1690" 
d="M1309 1466h207v-1466h-127v1323h-6l-483 -1323h-116l-477 1323h-6v-1323h-127v1466h207l461 -1277z" />
    <glyph glyph-name="Nu" unicode="&#x39d;" horiz-adv-x="1423" 
d="M1121 214v1252h128v-1466h-149l-794 1245h-4v-1245h-128v1466h140l800 -1252h7z" />
    <glyph glyph-name="Xi" unicode="&#x39e;" horiz-adv-x="1244" 
d="M1109 1341h-974v125h974v-125zM1014 676h-784v125h784v-125zM1134 0h-1024v125h1024v-125z" />
    <glyph glyph-name="Omicron" unicode="&#x39f;" horiz-adv-x="1584" 
d="M108 731q0 229 88 401t244.5 265.5t351.5 93.5q197 0 352.5 -93t243.5 -265t88 -400q0 -225 -88.5 -397.5t-244.5 -266.5t-351 -94q-194 0 -349.5 93t-245 264.5t-89.5 398.5zM790 1372q-152 0 -275 -76t-192.5 -222t-69.5 -347q0 -205 75 -348t198 -214t264 -71
q154 0 277 75.5t193.5 219.5t70.5 340t-69.5 342t-192 223.5t-279.5 77.5z" />
    <glyph glyph-name="Pi" unicode="&#x3a0;" horiz-adv-x="1421" 
d="M1108 0v1341h-795v-1341h-139v1466h1073v-1466h-139z" />
    <glyph glyph-name="Rho" unicode="&#x3a1;" horiz-adv-x="1235" 
d="M1147 1047q0 -124 -57 -221t-162 -151t-245 -54h-370v-621h-139v1466h504q142 0 247.5 -49t163.5 -143.5t58 -226.5zM1002 1044q0 147 -86.5 222t-271.5 75h-331v-595h330q173 0 266 76t93 222z" />
    <glyph glyph-name="Sigma" unicode="&#x3a3;" horiz-adv-x="1091" 
d="M981 1466v-125h-755l497 -578v-1l-509 -637h812v-125h-966v129l503 633l-502 584v120h920z" />
    <glyph glyph-name="Tau" unicode="&#x3a4;" 
d="M639 1341v-1341h-139v1341h-448v125h1035v-125h-448z" />
    <glyph glyph-name="Upsilon" unicode="&#x3a5;" horiz-adv-x="1221" 
d="M1056 1466h153l-538 -833v-633h-139v633l-520 833h159l439 -709z" />
    <glyph glyph-name="Phi" unicode="&#x3a6;" horiz-adv-x="1571" 
d="M1471 743q0 -166 -72 -289.5t-210 -194.5t-334 -82v-187h-139v187q-192 11 -330.5 81t-212 192.5t-73.5 290.5q0 171 74 294.5t212 193t330 80.5v167h139v-167q191 -12 329 -80.5t212.5 -191.5t74.5 -294zM716 296v894q-238 -16 -354.5 -125t-116.5 -326q0 -188 116 -306
t355 -137zM855 1189v-893q471 31 471 444q0 208 -123.5 320.5t-347.5 128.5z" />
    <glyph glyph-name="Chi" unicode="&#x3a7;" horiz-adv-x="1251" 
d="M1057 1466h145l-486 -696l527 -770h-168l-444 669l-457 -669h-166l550 774l-470 692h164l388 -595z" />
    <glyph glyph-name="Psi" unicode="&#x3a8;" horiz-adv-x="1609" 
d="M1310 995v471h139v-491q0 -158 -65 -274.5t-194 -180.5t-316 -64v-456h-139v457q-287 0 -431 137t-144 387v485h139v-469q0 -208 108.5 -314.5t327.5 -106.5v890h139v-890q217 0 326.5 111.5t109.5 307.5z" />
    <glyph glyph-name="Omega" unicode="&#x3a9;" horiz-adv-x="1581" 
d="M904 0v115q185 126 286.5 288.5t101.5 386.5q0 175 -67.5 307.5t-182 203.5t-251.5 71q-152 0 -266 -72.5t-175 -204t-61 -303.5q0 -218 99 -382t291 -295v-115h-549v125h375q-112 70 -193.5 176t-124.5 233t-43 260q0 201 84.5 359.5t232 248t330.5 89.5q193 0 340 -96
t226.5 -255.5t79.5 -345.5q0 -127 -43.5 -254.5t-125 -235.5t-190.5 -179h373v-125h-547z" />
    <glyph glyph-name="Iotadieresis" unicode="&#x3aa;" horiz-adv-x="487" 
d="M174 0v1466h139v-1466h-139zM152 1591h-123v162h123v-162zM461 1591h-123v162h123v-162z" />
    <glyph glyph-name="Upsilondieresis" unicode="&#x3ab;" horiz-adv-x="1221" 
d="M1056 1466h153l-538 -833v-633h-139v633l-520 833h159l439 -709zM518 1591h-123v162h123v-162zM827 1591h-123v162h123v-162z" />
    <glyph glyph-name="alphatonos" unicode="&#x3ac;" horiz-adv-x="1154" 
d="M930 1061h131q-42 -117 -70.5 -254.5t-39.5 -269.5q9 -128 39.5 -260.5t81.5 -276.5h-131q-38 114 -50 159.5t-19 93.5h-4q-52 -145 -149 -211.5t-219 -66.5q-137 0 -233 74t-144 199t-48 277q0 161 51.5 288t149 199.5t232.5 72.5q108 0 202.5 -59t157.5 -212h4
q26 144 58 247zM500 976q-87 0 -153.5 -54.5t-103.5 -156.5t-37 -237q0 -131 38 -232t104 -156.5t147 -55.5q102 0 177 52.5t115.5 153t40.5 243.5q0 126 -37.5 226.5t-111.5 158.5t-179 58zM423 1194l123 272h175l-195 -272h-103z" />
    <glyph glyph-name="epsilontonos" unicode="&#x3ad;" horiz-adv-x="927" 
d="M479 977q-74 0 -124.5 -26.5t-75 -68t-24.5 -86.5q0 -56 25 -100t72.5 -69.5t113.5 -25.5h134v-109h-130q-77 0 -129.5 -29.5t-77.5 -78t-25 -104.5q0 -53 30 -97.5t85.5 -71t128.5 -26.5q79 0 159.5 36.5t139.5 91.5l84 -82q-87 -80 -180.5 -117.5t-204.5 -37.5
q-130 0 -214 42.5t-122.5 110.5t-38.5 148q0 92 48 163t134 109q-85 42 -123.5 101.5t-38.5 145.5q0 73 39 139t122 108.5t208 42.5q186 0 326 -123l-77 -82q-113 96 -264 96zM390 1194l123 272h175l-195 -272h-103z" />
    <glyph glyph-name="etatonos" unicode="&#x3ae;" horiz-adv-x="1096" 
d="M832 708q0 128 -65 196.5t-187 68.5q-92 0 -164.5 -45.5t-110.5 -122.5q-37 -73 -37 -212v-593h-129v1061h121v-169q54 93 142 143t195 50q174 0 269 -93.5t95 -265.5v-1132h-129v1114zM469 1194l123 272h175l-195 -272h-103z" />
    <glyph glyph-name="iotatonos" unicode="&#x3af;" horiz-adv-x="468" 
d="M361 86q45 0 88 15l24 -101q-23 -10 -56.5 -16.5t-65.5 -6.5q-116 0 -164 57t-48 183v844h129v-838q0 -55 10 -84.5t29 -41t54 -11.5zM122 1194l123 272h175l-195 -272h-103z" />
    <glyph glyph-name="upsilondieresistonos" unicode="&#x3b0;" horiz-adv-x="1054" 
d="M514 88q108 0 176.5 49.5t102.5 157t34 280.5q0 104 -20 236.5t-60 249.5h129q41 -132 60.5 -244t19.5 -245q0 -298 -112.5 -447.5t-333.5 -149.5q-178 0 -276.5 108.5t-98.5 317.5v660h129v-661q0 -148 64.5 -230t185.5 -82zM437 1204l63 272h155l-135 -272h-83z
M397 1232h-123v162h123v-162zM766 1232h-123v162h123v-162z" />
    <glyph glyph-name="alpha" unicode="&#x3b1;" horiz-adv-x="1154" 
d="M930 1061h131q-42 -117 -70.5 -254.5t-39.5 -269.5q9 -128 39.5 -260.5t81.5 -276.5h-131q-38 114 -50 159.5t-19 93.5h-4q-52 -145 -149 -211.5t-219 -66.5q-137 0 -233 74t-144 199t-48 277q0 161 51.5 288t149 199.5t232.5 72.5q108 0 202.5 -59t157.5 -212h4
q26 144 58 247zM500 976q-87 0 -153.5 -54.5t-103.5 -156.5t-37 -237q0 -131 38 -232t104 -156.5t147 -55.5q102 0 177 52.5t115.5 153t40.5 243.5q0 126 -37.5 226.5t-111.5 158.5t-179 58z" />
    <glyph glyph-name="beta" unicode="&#x3b2;" horiz-adv-x="1085" 
d="M928 1123q0 -107 -57 -186.5t-156 -126.5q145 -39 217.5 -140.5t72.5 -258.5q0 -129 -49.5 -227.5t-142.5 -153.5t-219 -55q-110 0 -186 42t-136 139h-4v-562h-129v1437q0 140 47 243.5t139 160t222 56.5q114 0 200 -46.5t133.5 -130t47.5 -191.5zM795 1126
q0 77 -31.5 134.5t-90 89.5t-137.5 32q-124 0 -196 -82.5t-72 -270.5v-516q0 -135 38 -231.5t107 -147t163 -50.5q90 0 157 40.5t103 115t36 174.5q0 104 -39 177.5t-110.5 111.5t-167.5 38h-112v109h79q75 0 137 33t99 96t37 147z" />
    <glyph glyph-name="gamma" unicode="&#x3b3;" horiz-adv-x="976" 
d="M828 1061h133l-408 -1041v-426h-129v424l-409 1043h133l340 -907z" />
    <glyph glyph-name="delta" unicode="&#x3b4;" horiz-adv-x="1102" 
d="M75 518q0 162 57 284.5t165.5 190t257.5 67.5q-83 61 -155.5 126.5l-184.5 173.5l-28 27v79h750v-105h-558q82 -79 180.5 -162l223.5 -183l25 -20q113 -90 166 -205t53 -271q0 -173 -59 -296t-166.5 -186t-251.5 -63q-141 0 -248.5 62.5t-167 185t-59.5 295.5zM548 956
q-108 0 -184 -52t-116 -150.5t-40 -235.5q0 -143 43.5 -240.5t120 -145.5t178.5 -48q101 0 178.5 48t121.5 146t44 242q0 138 -43.5 236.5t-121.5 149t-181 50.5z" />
    <glyph glyph-name="epsilon" unicode="&#x3b5;" horiz-adv-x="927" 
d="M479 977q-74 0 -124.5 -26.5t-75 -68t-24.5 -86.5q0 -56 25 -100t72.5 -69.5t113.5 -25.5h134v-109h-130q-77 0 -129.5 -29.5t-77.5 -78t-25 -104.5q0 -53 30 -97.5t85.5 -71t128.5 -26.5q79 0 159.5 36.5t139.5 91.5l84 -82q-87 -80 -180.5 -117.5t-204.5 -37.5
q-130 0 -214 42.5t-122.5 110.5t-38.5 148q0 92 48 163t134 109q-85 42 -123.5 101.5t-38.5 145.5q0 73 39 139t122 108.5t208 42.5q186 0 326 -123l-77 -82q-113 96 -264 96z" />
    <glyph glyph-name="zeta" unicode="&#x3b6;" horiz-adv-x="864" 
d="M208 477q0 -84 19 -142.5t77.5 -103.5t171.5 -71q123 -28 193 -68t100 -97t30 -140q0 -73 -45 -138.5t-130.5 -106t-202.5 -40.5q-7 0 -14.5 1t-14.5 1l28 107q81 0 137.5 23t84.5 62.5t28 88.5q0 54 -18.5 88.5t-67.5 60t-142 45.5q-133 29 -213 81.5t-117 136
t-37 209.5q0 143 67.5 303t193.5 313t294 271h-428v105h620v-79q-223 -151 -360 -312.5t-195.5 -312t-58.5 -285.5z" />
    <glyph glyph-name="eta" unicode="&#x3b7;" horiz-adv-x="1096" 
d="M832 708q0 128 -65 196.5t-187 68.5q-92 0 -164.5 -45.5t-110.5 -122.5q-37 -73 -37 -212v-593h-129v1061h121v-169q54 93 142 143t195 50q174 0 269 -93.5t95 -265.5v-1132h-129v1114z" />
    <glyph glyph-name="theta" unicode="&#x3b8;" horiz-adv-x="1058" 
d="M85 708q0 407 113 595t333 188q219 0 330.5 -180t111.5 -579q0 -382 -112.5 -569.5t-329.5 -187.5q-219 0 -332.5 183.5t-113.5 549.5zM219 789h620q-4 220 -40.5 350.5t-103 186.5t-166.5 56q-150 0 -226.5 -140t-83.5 -453zM839 684h-621q2 -215 37 -346.5
t103.5 -192.5t175.5 -61q148 0 224 144.5t81 455.5z" />
    <glyph glyph-name="iota" unicode="&#x3b9;" horiz-adv-x="468" 
d="M361 86q45 0 88 15l24 -101q-23 -10 -56.5 -16.5t-65.5 -6.5q-116 0 -164 57t-48 183v844h129v-838q0 -55 10 -84.5t29 -41t54 -11.5z" />
    <glyph glyph-name="kappa" unicode="&#x3ba;" horiz-adv-x="1006" 
d="M287 586l492 475h166l-416 -401l449 -660h-162l-380 578l-149 -139v-439h-129v1061h129v-475z" />
    <glyph glyph-name="lambda" unicode="&#x3bb;" horiz-adv-x="928" 
d="M244 1466h120l549 -1466h-127l-220 591q-68 186 -98 288h-4q-36 -116 -105 -296l-220 -583h-124l391 1021z" />
    <glyph glyph-name="mu" unicode="&#x3bc;" horiz-adv-x="1107" 
d="M268 470q0 -386 285 -386q151 0 218.5 103.5t67.5 276.5v597h129v-1061h-121v144q-104 -169 -292 -169q-73 0 -123.5 13.5t-88.5 43t-75 80.5v-518h-129v1467h129v-591z" />
    <glyph glyph-name="nu" unicode="&#x3bd;" horiz-adv-x="976" 
d="M820 1061h131q-35 -241 -157.5 -522t-293.5 -539h-92l-393 1061h133l320 -911q151 250 235.5 467t116.5 444z" />
    <glyph glyph-name="xi" unicode="&#x3be;" horiz-adv-x="812" 
d="M560 1381q-136 0 -201 -56t-65 -156q0 -101 70 -158.5t206 -57.5h81v-109h-35q-127 0 -214.5 -62t-130.5 -156.5t-43 -189.5q0 -63 16 -115.5t66 -96.5t145 -64q152 -32 223.5 -105.5t71.5 -199.5q0 -86 -47 -151.5t-133 -99.5t-198 -34q-15 0 -29 2l28 107
q120 0 185 46.5t65 127.5q0 54 -16.5 89.5t-62 61.5t-130.5 43q-163 32 -240 130.5t-77 260.5q0 117 47.5 212t121.5 155t153 83q-125 23 -188 99t-63 194q0 149 101.5 229t292.5 80h101v-109h-101z" />
    <glyph glyph-name="omicron" unicode="&#x3bf;" horiz-adv-x="1102" 
d="M75 530q0 178 60 303t167 188.5t248 63.5q143 0 250.5 -63.5t167 -188t59.5 -301.5t-59 -302.5t-166.5 -190t-251.5 -64.5q-141 0 -248.5 64t-167 190t-59.5 301zM548 976q-99 0 -175.5 -50t-120.5 -150.5t-44 -245.5q0 -147 43.5 -247t120 -149.5t178.5 -49.5
q101 0 178.5 49.5t121.5 150t44 248.5q0 142 -43.5 241.5t-121.5 151t-181 51.5z" />
    <glyph glyph-name="pi" unicode="&#x3c0;" horiz-adv-x="1208" 
d="M922 223q0 -55 10 -84.5t30 -41t53 -11.5q46 0 88 15l24 -101q-23 -10 -56.5 -16.5t-65.5 -6.5q-116 0 -164 57t-48 183v739h-415v-956h-129v956q-125 0 -221 -35v105q105 35 221 35h915v-105h-242v-733z" />
    <glyph glyph-name="rho" unicode="&#x3c1;" horiz-adv-x="1128" 
d="M591 1085q147 0 251.5 -70.5t157.5 -193.5t53 -281q0 -169 -53 -296.5t-152.5 -198t-234.5 -70.5q-115 0 -198 42.5t-147 138.5h-4v-562h-129v919q0 175 53 304t155.5 198.5t247.5 69.5zM591 976q-162 0 -247.5 -123.5t-85.5 -339.5q0 -134 42.5 -231t119 -147.5
t178.5 -50.5q98 0 171 55.5t112 158t39 240.5q0 132 -40 231t-114 153t-175 54z" />
    <glyph glyph-name="sigma1" unicode="&#x3c2;" horiz-adv-x="954" 
d="M455 -321q81 0 137.5 23t84.5 62.5t28 88.5q0 51 -22 85t-73 59t-143 50q-141 37 -227 100t-125.5 154.5t-39.5 218.5q0 159 68.5 288t194 203t290.5 74q57 0 128.5 -10.5t127.5 -30.5l-27 -109q-53 21 -120 31t-112 10q-128 0 -222 -58t-144.5 -161t-50.5 -237
q0 -96 25 -163.5t89 -116.5t179 -80q126 -34 197.5 -74t103.5 -94.5t32 -136.5q0 -73 -45 -138.5t-130.5 -106t-202.5 -40.5q-100 0 -175 25l24 114q30 -13 70.5 -21.5t79.5 -8.5z" />
    <glyph glyph-name="sigma" unicode="&#x3c3;" horiz-adv-x="1211" 
d="M75 520q0 175 60.5 296.5t171 183t258.5 61.5h602v-105h-327q89 -68 138 -178.5t49 -255.5q0 -174 -59 -297t-166.5 -186.5t-251.5 -63.5q-141 0 -248.5 63t-167 185.5t-59.5 296.5zM548 956q-98 0 -175 -49t-121 -147t-44 -240q0 -144 43.5 -241.5t120.5 -146t178 -48.5
t178.5 48.5t121.5 147t44 242.5q0 138 -43.5 236t-121.5 148t-181 50z" />
    <glyph glyph-name="tau" unicode="&#x3c4;" horiz-adv-x="781" 
d="M531 86q46 0 88 15l24 -101q-23 -10 -56.5 -16.5t-65.5 -6.5q-78 0 -122 25.5t-62 77.5t-18 137v739h-28q-134 0 -247 -35v105q109 35 244 35h449v-105h-289v-733q0 -56 7.5 -85.5t25 -40.5t50.5 -11z" />
    <glyph glyph-name="upsilon" unicode="&#x3c5;" horiz-adv-x="1054" 
d="M514 88q108 0 176.5 49.5t102.5 157t34 280.5q0 104 -20 236.5t-60 249.5h129q41 -132 60.5 -244t19.5 -245q0 -298 -112.5 -447.5t-333.5 -149.5q-178 0 -276.5 108.5t-98.5 317.5v660h129v-661q0 -148 64.5 -230t185.5 -82z" />
    <glyph glyph-name="phi" unicode="&#x3c6;" horiz-adv-x="1283" 
d="M577 87v757q0 241 222 241q123 0 215.5 -65.5t143 -186t50.5 -281.5q0 -166 -60 -291t-173 -198t-269 -85v-384h-129v384q-160 12 -273 86t-171 197.5t-58 282.5q0 149 56 268.5t157.5 191t232.5 81.5l-27 -117q-142 -25 -214 -138t-72 -288q0 -126 43.5 -224t126.5 -158
t199 -73zM706 832v-745q176 20 272.5 139t96.5 326q0 134 -35.5 229.5t-97.5 145t-139 49.5q-56 0 -76.5 -38.5t-20.5 -105.5z" />
    <glyph glyph-name="chi" unicode="&#x3c7;" horiz-adv-x="971" 
d="M488 463l302 598h146l-382 -723l405 -744h-146l-330 633l-325 -633h-146l403 748l-369 719h146z" />
    <glyph glyph-name="psi" unicode="&#x3c8;" horiz-adv-x="1331" 
d="M1067 478v583h129v-582q0 -227 -119 -355.5t-344 -145.5v-384h-129v383q-230 15 -349.5 141.5t-119.5 360.5v582h129v-583q0 -174 85 -273t255 -115v971h129v-970q168 16 251 114t83 273z" />
    <glyph glyph-name="omega" unicode="&#x3c9;" horiz-adv-x="1421" 
d="M231 506q0 -219 56.5 -320.5t157.5 -101.5q105 0 153 98.5t48 300.5v311h129v-311q0 -202 48 -300.5t153 -98.5q101 0 157.5 101.5t56.5 320.5q0 126 -34 274.5t-105 280.5h140q63 -133 97.5 -275t34.5 -281q0 -262 -90 -396t-251 -134q-205 0 -272 220
q-35 -116 -105 -168t-174 -52q-102 0 -176.5 59t-115.5 178t-41 293q0 139 34.5 281t97.5 275h140q-71 -132 -105 -280.5t-34 -274.5z" />
    <glyph glyph-name="iotadieresis" unicode="&#x3ca;" horiz-adv-x="468" 
d="M361 86q45 0 88 15l24 -101q-23 -10 -56.5 -16.5t-65.5 -6.5q-116 0 -164 57t-48 183v844h129v-838q0 -55 10 -84.5t29 -41t54 -11.5zM111 1222h-123v162h123v-162zM420 1222h-123v162h123v-162z" />
    <glyph glyph-name="upsilondieresis" unicode="&#x3cb;" horiz-adv-x="1054" 
d="M514 88q108 0 176.5 49.5t102.5 157t34 280.5q0 104 -20 236.5t-60 249.5h129q41 -132 60.5 -244t19.5 -245q0 -298 -112.5 -447.5t-333.5 -149.5q-178 0 -276.5 108.5t-98.5 317.5v660h129v-661q0 -148 64.5 -230t185.5 -82zM427 1222h-123v162h123v-162zM736 1222h-123
v162h123v-162z" />
    <glyph glyph-name="omicrontonos" unicode="&#x3cc;" horiz-adv-x="1102" 
d="M75 530q0 178 60 303t167 188.5t248 63.5q143 0 250.5 -63.5t167 -188t59.5 -301.5t-59 -302.5t-166.5 -190t-251.5 -64.5q-141 0 -248.5 64t-167 190t-59.5 301zM548 976q-99 0 -175.5 -50t-120.5 -150.5t-44 -245.5q0 -147 43.5 -247t120 -149.5t178.5 -49.5
q101 0 178.5 49.5t121.5 150t44 248.5q0 142 -43.5 241.5t-121.5 151t-181 51.5zM462 1194l123 272h175l-195 -272h-103z" />
    <glyph glyph-name="upsilontonos" unicode="&#x3cd;" horiz-adv-x="1054" 
d="M514 88q108 0 176.5 49.5t102.5 157t34 280.5q0 104 -20 236.5t-60 249.5h129q41 -132 60.5 -244t19.5 -245q0 -298 -112.5 -447.5t-333.5 -149.5q-178 0 -276.5 108.5t-98.5 317.5v660h129v-661q0 -148 64.5 -230t185.5 -82zM436 1194l123 272h175l-195 -272h-103z" />
    <glyph glyph-name="omegatonos" unicode="&#x3ce;" horiz-adv-x="1421" 
d="M231 506q0 -219 56.5 -320.5t157.5 -101.5q105 0 153 98.5t48 300.5v311h129v-311q0 -202 48 -300.5t153 -98.5q101 0 157.5 101.5t56.5 320.5q0 126 -34 274.5t-105 280.5h140q63 -133 97.5 -275t34.5 -281q0 -262 -90 -396t-251 -134q-205 0 -272 220
q-35 -116 -105 -168t-174 -52q-102 0 -176.5 59t-115.5 178t-41 293q0 139 34.5 281t97.5 275h140q-71 -132 -105 -280.5t-34 -274.5zM621 1194l123 272h175l-195 -272h-103z" />
    <glyph glyph-name="afii10023" unicode="&#x401;" horiz-adv-x="1192" 
d="M313 1341v-522h691v-125h-691v-569h781v-125h-920v1466h885v-125h-746zM518 1591h-123v162h123v-162zM827 1591h-123v162h123v-162z" />
    <glyph glyph-name="afii10051" unicode="&#x402;" horiz-adv-x="1606" 
d="M1069 94q81 0 150.5 41.5t111.5 122.5t42 193q0 115 -43.5 195.5t-120.5 121t-175 40.5q-118 0 -209.5 -21t-185.5 -74v-713h-139v1337h-448v129h1035v-129h-448v-507q94 50 193.5 73.5t210.5 23.5q145 0 252.5 -60t165 -168t57.5 -248q0 -138 -58 -246.5t-160 -169
t-231 -60.5q-76 0 -126.5 6.5t-92.5 20.5l38 121q35 -15 77.5 -22t103.5 -7z" />
    <glyph glyph-name="afii10052" unicode="&#x403;" horiz-adv-x="1035" 
d="M983 1466v-125h-670v-1341h-139v1466h809zM473 1605l153 266h175l-225 -266h-103z" />
    <glyph glyph-name="afii10053" unicode="&#x404;" horiz-adv-x="1457" 
d="M771 1372q-143 0 -255 -69.5t-179.5 -195t-80.5 -287.5h568v-125h-570q8 -180 70 -315.5t174.5 -210.5t266.5 -75q176 0 297.5 95.5t169.5 275.5l135 -33q-40 -151 -125 -252t-205 -153t-265 -52q-206 0 -355.5 93t-229 266t-79.5 409q0 222 83.5 391.5t235 263
t348.5 93.5q213 0 358.5 -101t206.5 -292l-135 -33q-51 151 -161.5 229t-272.5 78z" />
    <glyph glyph-name="afii10054" unicode="&#x405;" horiz-adv-x="1251" 
d="M626 1372q-99 0 -176.5 -33.5t-119.5 -92t-42 -134.5q0 -108 78 -175t252 -102q182 -37 295.5 -85t175 -130t61.5 -213q0 -119 -60.5 -217.5t-177.5 -156.5t-280 -58q-153 0 -270 58.5t-186 163.5t-86 243l134 21v-1q19 -113 73.5 -195.5t138 -126.5t187.5 -44
q113 0 201 37t137.5 105.5t49.5 160.5q0 76 -34.5 130t-124.5 96t-254 73q-162 30 -260.5 83.5t-143.5 132.5t-45 188q0 110 58 200t164 140.5t244 50.5q232 0 357 -106t135 -306l-131 -14q-10 151 -100.5 229t-249.5 78z" />
    <glyph glyph-name="afii10055" unicode="&#x406;" horiz-adv-x="487" 
d="M174 0v1466h139v-1466h-139z" />
    <glyph glyph-name="afii10056" unicode="&#x407;" horiz-adv-x="487" 
d="M174 0v1466h139v-1466h-139zM152 1591h-123v162h123v-162zM461 1591h-123v162h123v-162z" />
    <glyph glyph-name="afii10057" unicode="&#x408;" horiz-adv-x="977" 
d="M412 -25q-354 0 -367 428l130 15q8 -176 68.5 -250t181.5 -74q123 0 184 78t61 238v1056h139v-1059q0 -210 -94 -321t-303 -111z" />
    <glyph glyph-name="afii10058" unicode="&#x409;" horiz-adv-x="1916" 
d="M400 1341v-1029q0 -176 -67.5 -256.5t-193.5 -80.5q-55 0 -87 5.5t-57 15.5l23 118q48 -20 99 -20q144 0 144 221v1151h813v-621h290q140 0 245 -54t162 -151t57 -221q0 -132 -58 -226.5t-163.5 -143.5t-247.5 -49h-424v1341h-535zM1325 125q185 0 271.5 75t86.5 222
q0 146 -93 222t-266 76h-250v-595h251z" />
    <glyph glyph-name="afii10059" unicode="&#x40a;" horiz-adv-x="1916" 
d="M1828 419q0 -132 -58 -226.5t-163.5 -143.5t-247.5 -49h-424v720h-622v-720h-139v1466h139v-621h622v621h139v-621h290q140 0 245 -54t162 -151t57 -221zM1325 125q185 0 271.5 75t86.5 222q0 146 -93 222t-266 76h-250v-595h251z" />
    <glyph glyph-name="afii10060" unicode="&#x40b;" horiz-adv-x="1589" 
d="M500 1337h-448v129h1035v-129h-448v-507q99 48 198 72.5t206 24.5q135 0 225.5 -40t139.5 -140t49 -275v-472h-139v468q0 118 -26.5 192t-88.5 111t-169 37q-114 0 -200.5 -20.5t-194.5 -74.5v-713h-139v1337z" />
    <glyph glyph-name="afii10061" unicode="&#x40c;" horiz-adv-x="1181" 
d="M376 842q94 0 143.5 21t85 76.5t87.5 187.5l46 114q48 120 118.5 172.5t179.5 52.5h72v-119h-65q-63 0 -105 -35t-73 -111l-45 -108q-41 -99 -73.5 -156t-68 -91t-83.5 -53v-4q66 -17 115.5 -53.5t97.5 -104t113 -186.5l240 -445h-155l-215 406q-72 136 -125 201.5
t-117.5 90.5t-172.5 25h-63v-723h-139v1466h139v-624h63zM496 1605l153 266h175l-225 -266h-103z" />
    <glyph glyph-name="afii10062" unicode="&#x40e;" horiz-adv-x="1221" 
d="M678 597l395 869h148l-516 -1089q-76 -160 -139 -246t-128 -121t-151 -35q-36 0 -81 12.5t-73 28.5v123q24 -18 71 -31.5t81 -13.5q47 0 87 21.5t88 83.5t107 181l40 81l-575 1005h155zM651 1663q77 0 121 35t62 112h121q-17 -115 -95.5 -178.5t-208.5 -63.5
q-139 0 -221 61t-101 181h122q11 -74 61 -110.5t139 -36.5z" />
    <glyph glyph-name="afii10145" unicode="&#x40f;" horiz-adv-x="1421" 
d="M313 1466v-1341h795v1341h139v-1466h-472v-406h-129v406h-472v1466h139z" />
    <glyph glyph-name="afii10017" unicode="&#x410;" horiz-adv-x="1323" 
d="M1165 0l-182 465h-661l-172 -465h-146l561 1466h160l594 -1466h-154zM535 1038l-172 -458h575l-178 452q-59 147 -115 328h-4q-17 -62 -45.5 -149.5t-60.5 -172.5z" />
    <glyph glyph-name="afii10018" unicode="&#x411;" horiz-adv-x="1195" 
d="M313 1341v-496h330q140 0 245 -54t162 -151t57 -221q0 -132 -58 -226.5t-163.5 -143.5t-247.5 -49h-464v1466h799v-125h-660zM962 422q0 146 -93 222t-266 76h-290v-595h291q185 0 271.5 75t86.5 222z" />
    <glyph glyph-name="afii10019" unicode="&#x412;" horiz-adv-x="1313" 
d="M1142 1094q0 -215 -211 -322q152 -50 216 -140.5t64 -218.5q0 -117 -55.5 -211.5t-158.5 -148t-239 -53.5h-584v1466h523q142 0 242 -44.5t151.5 -128t51.5 -199.5zM1000 1088q0 126 -77 189.5t-250 63.5h-360v-520h401q86 0 151 33t100 93.5t35 140.5zM1066 412
q0 88 -39 152.5t-111 99t-168 34.5h-435v-573h430q155 0 239 76.5t84 210.5z" />
    <glyph glyph-name="afii10020" unicode="&#x413;" horiz-adv-x="1035" 
d="M983 1466v-125h-670v-1341h-139v1466h809z" />
    <glyph glyph-name="afii10021" unicode="&#x414;" horiz-adv-x="1310" 
d="M12 125h133q89 239 129.5 485.5t40.5 558.5v297h803v-1341h150v-531h-129v406h-998v-406h-129v531zM454 1341v-194q0 -295 -40 -544t-126 -478h691v1216h-525z" />
    <glyph glyph-name="afii10022" unicode="&#x415;" horiz-adv-x="1192" 
d="M313 1341v-522h691v-125h-691v-569h781v-125h-920v1466h885v-125h-746z" />
    <glyph glyph-name="afii10024" unicode="&#x416;" horiz-adv-x="1815" 
d="M390 406l-215 -406h-155l240 445q65 119 113 186.5t97.5 104t115.5 53.5v4q-48 20 -83.5 54t-68 91.5t-73.5 154.5l-45 108q-31 76 -73 111t-105 35h-65v119h72q109 0 179.5 -52.5t118.5 -172.5l46 -114q52 -129 87.5 -186t85 -78t143.5 -21h33v624h139v-624h33
q94 0 143.5 21t85 78t87.5 186l46 114q48 120 118.5 172.5t179.5 52.5h72v-119h-65q-63 0 -105 -35t-73 -111l-45 -108q-41 -97 -73.5 -154.5t-68 -91.5t-83.5 -54v-4q66 -17 115.5 -53.5t97.5 -104t113 -186.5l240 -445h-155l-215 406q-72 136 -125 201.5t-117.5 90.5
t-172.5 25h-33v-723h-139v723h-33q-108 0 -172.5 -25t-117.5 -90.5t-125 -201.5z" />
    <glyph glyph-name="afii10025" unicode="&#x417;" horiz-adv-x="1180" 
d="M1078 410q0 -122 -60 -221.5t-170 -156.5t-255 -57q-208 0 -336.5 112.5t-168.5 303.5l146 28q32 -158 127 -241.5t240 -83.5q94 0 169.5 38t119 113t43.5 181q0 139 -85 218t-243 79h-111v119h121q80 0 136 35t84.5 96.5t28.5 139.5q0 77 -31.5 135.5t-93 91
t-146.5 32.5q-123 0 -201.5 -69t-104.5 -207l-144 24q47 184 161 277.5t290 93.5q125 0 218.5 -49t143.5 -135t50 -193q0 -111 -55.5 -195.5t-164.5 -130.5v-4q137 -25 214.5 -124t77.5 -250z" />
    <glyph glyph-name="afii10026" unicode="&#x418;" horiz-adv-x="1423" 
d="M1121 0v1245h-4l-794 -1245h-149v1466h128v-1252h7l800 1252h140v-1466h-128z" />
    <glyph glyph-name="afii10027" unicode="&#x419;" horiz-adv-x="1423" 
d="M1121 0v1245h-4l-794 -1245h-149v1466h128v-1252h7l800 1252h140v-1466h-128zM713 1663q77 0 121 35t62 112h121q-17 -115 -95.5 -178.5t-208.5 -63.5q-139 0 -221 61t-101 181h122q11 -74 61 -110.5t139 -36.5z" />
    <glyph glyph-name="afii10028" unicode="&#x41a;" horiz-adv-x="1181" 
d="M376 842q94 0 143.5 21t85 76.5t87.5 187.5l46 114q48 120 118.5 172.5t179.5 52.5h72v-119h-65q-63 0 -105 -35t-73 -111l-45 -108q-41 -99 -73.5 -156t-68 -91t-83.5 -53v-4q66 -17 115.5 -53.5t97.5 -104t113 -186.5l240 -445h-155l-215 406q-72 136 -125 201.5
t-117.5 90.5t-172.5 25h-63v-723h-139v1466h139v-624h63z" />
    <glyph glyph-name="afii10029" unicode="&#x41b;" horiz-adv-x="1288" 
d="M117 94q144 0 144 221v1151h853v-1466h-139v1341h-575v-1029q0 -176 -67.5 -256.5t-193.5 -80.5q-55 0 -87 5.5t-57 15.5l23 118q48 -20 99 -20z" />
    <glyph glyph-name="afii10030" unicode="&#x41c;" horiz-adv-x="1690" 
d="M1309 1466h207v-1466h-127v1323h-6l-483 -1323h-116l-477 1323h-6v-1323h-127v1466h207l461 -1277z" />
    <glyph glyph-name="afii10031" unicode="&#x41d;" horiz-adv-x="1421" 
d="M1108 842v624h139v-1466h-139v717h-795v-717h-139v1466h139v-624h795z" />
    <glyph glyph-name="afii10032" unicode="&#x41e;" horiz-adv-x="1584" 
d="M108 731q0 229 88 401t244.5 265.5t351.5 93.5q197 0 352.5 -93t243.5 -265t88 -400q0 -225 -88.5 -397.5t-244.5 -266.5t-351 -94q-194 0 -349.5 93t-245 264.5t-89.5 398.5zM790 1372q-152 0 -275 -76t-192.5 -222t-69.5 -347q0 -205 75 -348t198 -214t264 -71
q154 0 277 75.5t193.5 219.5t70.5 340t-69.5 342t-192 223.5t-279.5 77.5z" />
    <glyph glyph-name="afii10033" unicode="&#x41f;" horiz-adv-x="1421" 
d="M1108 0v1341h-795v-1341h-139v1466h1073v-1466h-139z" />
    <glyph glyph-name="afii10034" unicode="&#x420;" horiz-adv-x="1235" 
d="M1147 1047q0 -124 -57 -221t-162 -151t-245 -54h-370v-621h-139v1466h504q142 0 247.5 -49t163.5 -143.5t58 -226.5zM1002 1044q0 147 -86.5 222t-271.5 75h-331v-595h330q173 0 266 76t93 222z" />
    <glyph glyph-name="afii10035" unicode="&#x421;" horiz-adv-x="1457" 
d="M771 1372q-152 0 -270.5 -80t-183 -222.5t-64.5 -324.5q0 -193 60 -340t175.5 -229t276.5 -82q176 0 297.5 95.5t169.5 275.5l135 -33q-40 -149 -125 -251t-205 -154t-265 -52q-206 0 -355.5 93t-229 266t-79.5 409q0 222 83.5 391.5t235 263t348.5 93.5
q213 0 358.5 -101t206.5 -292l-135 -33q-51 151 -161.5 229t-272.5 78z" />
    <glyph glyph-name="afii10036" unicode="&#x422;" 
d="M639 1341v-1341h-139v1341h-448v125h1035v-125h-448z" />
    <glyph glyph-name="afii10037" unicode="&#x423;" horiz-adv-x="1221" 
d="M678 597l395 869h148l-516 -1089q-76 -160 -139 -246t-128 -121t-151 -35q-36 0 -81 12.5t-73 28.5v123q24 -18 71 -31.5t81 -13.5q47 0 87 21.5t88 83.5t107 181l40 81l-575 1005h155z" />
    <glyph glyph-name="afii10038" unicode="&#x424;" horiz-adv-x="1495" 
d="M100 743q0 171 69.5 291.5t199 186.5t309.5 78v167h139v-167q180 -12 309.5 -78t199 -186.5t69.5 -291.5q0 -166 -67 -286.5t-196.5 -189.5t-314.5 -80v-187h-139v187q-185 11 -314.5 80t-196.5 189.5t-67 286.5zM678 306v873q-206 -12 -319.5 -121.5t-113.5 -317.5
q0 -204 107 -311t326 -123zM817 1179v-873q219 16 326 123t107 311q0 208 -113.5 317.5t-319.5 121.5z" />
    <glyph glyph-name="afii10039" unicode="&#x425;" horiz-adv-x="1251" 
d="M1057 1466h145l-486 -696l527 -770h-168l-444 669l-457 -669h-166l550 774l-470 692h164l388 -595z" />
    <glyph glyph-name="afii10040" unicode="&#x426;" horiz-adv-x="1439" 
d="M174 0v1466h139v-1341h795v1341h139v-1341h150v-531h-129v406h-1094z" />
    <glyph glyph-name="afii10041" unicode="&#x427;" horiz-adv-x="1313" 
d="M1000 621q-245 -97 -430 -97q-147 0 -242 40t-145.5 139.5t-50.5 275.5v487h139v-483q0 -119 27 -192.5t92.5 -110.5t178.5 -37q207 0 431 95v728h139v-1466h-139v621z" />
    <glyph glyph-name="afii10042" unicode="&#x428;" horiz-adv-x="1835" 
d="M313 1466v-1341h535v1341h139v-1341h535v1341h139v-1466h-1487v1466h139z" />
    <glyph glyph-name="afii10043" unicode="&#x429;" horiz-adv-x="1853" 
d="M313 125h535v1341h139v-1341h535v1341h139v-1341h150v-531h-129v406h-1508v1466h139v-1341z" />
    <glyph glyph-name="afii10044" unicode="&#x42a;" horiz-adv-x="1449" 
d="M567 1466v-621h330q140 0 245 -54t162 -151t57 -221q0 -132 -58 -226.5t-163.5 -143.5t-247.5 -49h-464v1341h-428v125h567zM1216 422q0 146 -93 222t-266 76h-290v-595h291q185 0 271.5 75t86.5 222z" />
    <glyph glyph-name="afii10045" unicode="&#x42b;" horiz-adv-x="1587" 
d="M313 1466v-621h290q140 0 245 -54t162 -151t57 -221q0 -132 -58 -226.5t-163.5 -143.5t-247.5 -49h-424v1466h139zM1274 0v1466h139v-1466h-139zM564 125q185 0 271.5 75t86.5 222q0 146 -93 222t-266 76h-250v-595h251z" />
    <glyph glyph-name="afii10046" unicode="&#x42c;" horiz-adv-x="1195" 
d="M313 1466v-621h330q140 0 245 -54t162 -151t57 -221q0 -132 -58 -226.5t-163.5 -143.5t-247.5 -49h-464v1466h139zM604 125q185 0 271.5 75t86.5 222q0 146 -93 222t-266 76h-290v-595h291z" />
    <glyph glyph-name="afii10047" unicode="&#x42d;" horiz-adv-x="1457" 
d="M682 1491q197 0 348.5 -93.5t235 -263t83.5 -391.5q0 -236 -79.5 -409.5t-229 -266t-355.5 -92.5q-145 0 -265 52t-205 154t-125 251l135 33q48 -180 169.5 -275.5t297.5 -95.5q154 0 266.5 75t174.5 210.5t70 315.5h-570v125h568q-13 164 -80.5 288.5t-179.5 194
t-255 69.5q-159 0 -271 -78t-163 -229l-135 33q61 191 206.5 292t358.5 101z" />
    <glyph glyph-name="afii10048" unicode="&#x42e;" horiz-adv-x="1963" 
d="M594 657h-281v-657h-139v1466h139v-684h281q9 215 91.5 375.5t221.5 247t314 86.5q183 0 327 -93t225.5 -265t81.5 -400q0 -225 -82 -397.5t-226.5 -266.5t-325.5 -94q-169 0 -306.5 83t-222 237.5t-98.5 361.5zM1220 1372q-138 0 -249.5 -76t-174.5 -222t-63 -347
q0 -202 68 -346.5t179.5 -215.5t239.5 -71q139 0 250.5 75.5t175.5 219.5t64 340t-63 342t-174 223.5t-253 77.5z" />
    <glyph glyph-name="afii10049" unicode="&#x42f;" horiz-adv-x="1296" 
d="M983 0v659h-218q-110 0 -182.5 -38.5t-132 -124.5t-137.5 -251l-115 -245h-155l154 318q64 132 110 206t83.5 108t79.5 46v6q-170 30 -261 129t-91 258q0 126 55.5 214.5t161 134.5t252.5 46h535v-1466h-139zM595 1341q-167 0 -249 -68t-82 -208q0 -139 87 -210t251 -71
h381v557h-388z" />
    <glyph glyph-name="afii10065" unicode="&#x430;" horiz-adv-x="1081" 
d="M969 0h-133q-27 64 -34 160l-3 1q-72 -94 -162.5 -140t-215.5 -46q-97 0 -170 37.5t-113 104.5t-40 153q0 92 39 156.5t125 107t227 63.5q209 31 304 67v39q0 99 -22 157.5t-79.5 87t-163.5 28.5q-230 0 -276 -208l-127 18q32 147 136 223t275 76q132 0 216.5 -35
t127 -113.5t42.5 -209.5v-398q0 -137 9.5 -201.5t37.5 -127.5zM477 485q-132 -25 -189 -76t-57 -139q0 -89 58.5 -139.5t164.5 -50.5q39 0 89.5 15t96 42t72.5 60q35 43 51 74.5t23 84.5t7 152v55q-27 -13 -108 -33.5t-208 -44.5z" />
    <glyph glyph-name="afii10066" unicode="&#x431;" horiz-adv-x="1102" 
d="M550 1058q143 0 250.5 -62t167 -183.5t59.5 -294.5t-59 -295t-166.5 -185t-251.5 -63q-164 0 -269 74t-155.5 228t-50.5 395q0 405 124 599.5t377 194.5h254q19 0 29.5 9.5t11.5 24.5h100q0 -68 -36 -105.5t-106 -37.5h-256q-121 0 -201 -51t-123.5 -157t-54.5 -274
l13 -4q59 96 149 141.5t194 45.5zM548 949q-96 0 -173.5 -45t-122 -126.5t-44.5 -187.5q0 -262 91.5 -384t250.5 -122q101 0 178.5 48t121.5 145.5t44 240.5q0 138 -43.5 235t-121.5 146.5t-181 49.5z" />
    <glyph glyph-name="afii10067" unicode="&#x432;" horiz-adv-x="1004" 
d="M520 0h-381v1061h369q191 0 277 -72t86 -213q0 -72 -40 -130t-116 -92q201 -60 201 -257q0 -138 -97.5 -217.5t-298.5 -79.5zM503 598q128 0 181.5 45.5t53.5 132.5q0 180 -242 180h-228v-358h235zM524 105q139 0 199 51t60 141q0 97 -62.5 146.5t-204.5 49.5h-248v-388
h256z" />
    <glyph glyph-name="afii10068" unicode="&#x433;" horiz-adv-x="717" 
d="M682 952h-414v-952h-129v1061h543v-109z" />
    <glyph glyph-name="afii10069" unicode="&#x434;" horiz-adv-x="1129" 
d="M323 1061h630v-952h138v-459h-123v350h-837v-350h-123v459h95q91 148 139.5 301t64.5 306.5t16 344.5zM450 952q-5 -239 -48.5 -450t-151.5 -393h574v843h-374z" />
    <glyph glyph-name="afii10070" unicode="&#x435;" horiz-adv-x="1081" 
d="M561 84q107 0 185.5 57.5t113.5 159.5l127 -20q-51 -149 -164 -227.5t-271 -78.5q-146 0 -253.5 67t-165.5 191t-58 289q0 173 58.5 300t165.5 195t251 68q160 0 262.5 -75t149.5 -205t47 -299h-801q4 -131 48.5 -226.5t123 -145.5t181.5 -50zM548 977q-92 0 -164 -43
t-116.5 -124.5t-55.5 -195.5h664q-18 180 -101 271.5t-227 91.5z" />
    <glyph glyph-name="afii10072" unicode="&#x436;" horiz-adv-x="1351" 
d="M380 337l-198 -337h-152l239 395q39 65 84.5 102t108.5 50q-61 28 -92.5 66t-64.5 111l-58 133q-20 46 -37.5 67t-37.5 26.5t-56 5.5h-46v105h68q58 0 96.5 -15t65.5 -47.5t53 -89.5l58 -130l12 -28q26 -59 44 -87t51 -44t93 -17v458h129v-458q62 0 95.5 18t52 49
t52.5 109l58 130q26 57 53 89.5t65.5 47.5t96.5 15h68v-105h-46q-36 0 -56 -5.5t-37.5 -26.5t-37.5 -67l-58 -133q-33 -73 -64.5 -111t-92.5 -66q63 -13 108.5 -50t84.5 -102l239 -395h-152l-198 337q-39 67 -68.5 100.5t-66.5 47.5t-96 14v-499h-129v499q-59 0 -95 -14
t-66.5 -47.5t-69.5 -100.5z" />
    <glyph glyph-name="afii10073" unicode="&#x437;" horiz-adv-x="957" 
d="M464 1086q126 0 209 -42.5t121 -108.5t38 -139q0 -87 -36.5 -143t-120.5 -98q84 -37 130.5 -108t46.5 -158q0 -94 -47 -164.5t-139 -109.5t-222 -39q-146 0 -240.5 68t-141.5 206l115 44q36 -109 105.5 -159t171.5 -50q89 0 148.5 26.5t88 71t28.5 100.5q0 57 -24 105.5
t-75 79t-128 30.5h-100v109h104q99 0 152.5 51.5t53.5 137.5q0 46 -24.5 87t-78 67.5t-135.5 26.5q-79 0 -146.5 -38.5t-116.5 -149.5l-109 47q44 120 138.5 185t233.5 65z" />
    <glyph glyph-name="afii10074" unicode="&#x438;" horiz-adv-x="1100" 
d="M268 201l551 860h142v-1061h-129v860l-551 -860h-142v1061h129v-860z" />
    <glyph glyph-name="afii10075" unicode="&#x439;" horiz-adv-x="1100" 
d="M268 201l551 860h142v-1061h-129v860l-551 -860h-142v1061h129v-860zM558 1295q69 0 112 35.5t58 111.5h121q-15 -114 -91.5 -178t-199.5 -64q-130 0 -210 61.5t-97 180.5h122q10 -73 57 -110t128 -37z" />
    <glyph glyph-name="afii10076" unicode="&#x43a;" horiz-adv-x="899" 
d="M268 603q71 0 107 15t56.5 47.5t56.5 113.5l58 130q26 57 53 89.5t65.5 47.5t96.5 15h68v-105h-46q-36 0 -56 -5.5t-37.5 -26.5t-37.5 -67l-58 -133q-33 -73 -64.5 -111t-92.5 -66q63 -13 108.5 -50t84.5 -102l239 -395h-152l-198 337q-40 68 -70 101t-71 47t-110 14
v-499h-129v1061h129v-458z" />
    <glyph glyph-name="afii10077" unicode="&#x43b;" horiz-adv-x="1103" 
d="M964 0h-129v952h-464v-664q0 -167 -62.5 -239t-179.5 -72q-87 0 -134 20l21 107q46 -18 92 -18q134 0 134 205v770h722v-1061z" />
    <glyph glyph-name="afii10078" unicode="&#x43c;" horiz-adv-x="1286" 
d="M643 182l330 879h174v-1061h-123v885l-332 -885h-98l-332 885v-885h-123v1061h174z" />
    <glyph glyph-name="afii10079" unicode="&#x43d;" horiz-adv-x="1100" 
d="M268 600h564v461h129v-1061h-129v491h-564v-491h-129v1061h129v-461z" />
    <glyph glyph-name="afii10080" unicode="&#x43e;" horiz-adv-x="1102" 
d="M75 530q0 178 60 303t167 188.5t248 63.5q143 0 250.5 -63.5t167 -188t59.5 -301.5t-59 -302.5t-166.5 -190t-251.5 -64.5q-141 0 -248.5 64t-167 190t-59.5 301zM548 976q-99 0 -175.5 -50t-120.5 -150.5t-44 -245.5q0 -147 43.5 -247t120 -149.5t178.5 -49.5
q101 0 178.5 49.5t121.5 150t44 248.5q0 142 -43.5 241.5t-121.5 151t-181 51.5z" />
    <glyph glyph-name="afii10081" unicode="&#x43f;" horiz-adv-x="1100" 
d="M961 0h-129v952h-564v-952h-129v1061h822v-1061z" />
    <glyph glyph-name="afii10082" unicode="&#x440;" horiz-adv-x="1132" 
d="M272 156h-4v-562h-129v1467h121v-174l5 1q71 105 160.5 151t200.5 46q133 0 230.5 -70.5t149 -194.5t51.5 -280q0 -169 -53 -296.5t-152.5 -198t-234.5 -70.5q-115 0 -198 42.5t-147 138.5zM607 976q-112 0 -189.5 -59.5t-116.5 -164t-39 -239.5q0 -134 42.5 -231
t119 -147.5t178.5 -50.5q98 0 171 55.5t112 158t39 240.5q0 131 -39 230.5t-111 153.5t-167 54z" />
    <glyph glyph-name="afii10083" unicode="&#x441;" horiz-adv-x="1064" 
d="M541 976q-95 0 -171 -50t-119 -150.5t-43 -246.5q0 -132 40.5 -232.5t117 -156.5t181.5 -56q119 0 199.5 67.5t120.5 214.5l129 -24q-50 -184 -163 -275.5t-292 -91.5q-144 0 -249.5 71t-161 197t-55.5 289q0 165 58 290.5t165 194t249 68.5q174 0 279.5 -81.5
t154.5 -241.5l-129 -24q-65 238 -311 238z" />
    <glyph glyph-name="afii10084" unicode="&#x442;" horiz-adv-x="801" 
d="M336 0v952h-292v109h713v-109h-292v-952h-129z" />
    <glyph glyph-name="afii10085" unicode="&#x443;" horiz-adv-x="958" 
d="M483 147h4q30 102 98 288l231 626h127l-456 -1216q-40 -106 -81 -165.5t-89.5 -84.5t-115.5 -25q-66 0 -128 16l27 109q18 -6 41.5 -9t42.5 -3q51 0 83 17t56.5 58t53.5 119l42 117l-399 1067h137l227 -618q55 -151 99 -296z" />
    <glyph glyph-name="afii10086" unicode="&#x444;" horiz-adv-x="1633" 
d="M451 -25q-115 0 -200 70.5t-130.5 198t-45.5 296.5q0 156 44 280t127.5 194.5t196.5 70.5q99 0 172 -34.5t132 -126.5l5 -1v543h129v-543l5 1q57 89 131.5 125t172.5 36q113 0 196.5 -70.5t127.5 -194.5t44 -280q0 -169 -45.5 -296.5t-130.5 -198t-200 -70.5
q-105 0 -171.5 32t-125.5 119h-4v-532h-129v532h-4q-55 -83 -126 -117t-171 -34zM475 84q84 0 147.5 50.5t98.5 147.5t35 231q0 135 -32 240.5t-96.5 164t-157.5 58.5q-79 0 -138 -54t-91.5 -153.5t-32.5 -230.5q0 -138 32.5 -240.5t93 -158t141.5 -55.5zM1163 976
q-93 0 -157.5 -59.5t-96.5 -164t-32 -239.5q0 -134 35 -231t98.5 -147.5t147.5 -50.5q81 0 141.5 55.5t93 158t32.5 240.5q0 131 -32.5 230.5t-91.5 153.5t-138 54z" />
    <glyph glyph-name="afii10087" unicode="&#x445;" horiz-adv-x="972" 
d="M487 656l274 405h156l-359 -496l394 -565h-156l-310 461l-310 -461h-156l394 553l-359 508h156l273 -404z" />
    <glyph glyph-name="afii10088" unicode="&#x446;" horiz-adv-x="1137" 
d="M139 1061h129v-952h564v952h129v-952h138v-459h-123v350h-837v1061z" />
    <glyph glyph-name="afii10089" unicode="&#x447;" horiz-adv-x="1066" 
d="M479 488q78 0 169 23t149 57v493h129v-1061h-129v460l-29 -13q-77 -35 -144.5 -53.5t-156.5 -18.5q-176 0 -269 90.5t-93 259.5v336h129v-319q0 -125 61 -189.5t184 -64.5z" />
    <glyph glyph-name="afii10090" unicode="&#x448;" horiz-adv-x="1669" 
d="M268 109h502v952h129v-952h502v952h129v-1061h-1391v1061h129v-952z" />
    <glyph glyph-name="afii10091" unicode="&#x449;" horiz-adv-x="1706" 
d="M139 1061h129v-952h502v952h129v-952h502v952h129v-952h138v-459h-123v350h-1406v1061z" />
    <glyph glyph-name="afii10092" unicode="&#x44a;" horiz-adv-x="1198" 
d="M1126 310q0 -144 -97.5 -227t-298.5 -83h-371v952h-315v109h444v-437h247q149 0 235 -39t121 -107.5t35 -167.5zM734 105q139 0 199 54t60 151q0 104 -62.5 156.5t-204.5 52.5h-238v-414h246z" />
    <glyph glyph-name="afii10093" unicode="&#x44b;" horiz-adv-x="1345" 
d="M886 310q0 -144 -97.5 -227t-298.5 -83h-351v1061h129v-437h227q149 0 235 -39t121 -107.5t35 -167.5zM1206 0h-129v1061h129v-1061zM494 105q139 0 199 54t60 151q0 104 -62.5 156.5t-204.5 52.5h-218v-414h226z" />
    <glyph glyph-name="afii10094" unicode="&#x44c;" horiz-adv-x="988" 
d="M916 310q0 -144 -97.5 -227t-298.5 -83h-381v1061h129v-437h257q149 0 235 -39t121 -107.5t35 -167.5zM524 105q139 0 199 54t60 151q0 104 -62.5 156.5t-204.5 52.5h-248v-414h256z" />
    <glyph glyph-name="afii10095" unicode="&#x44d;" horiz-adv-x="1064" 
d="M517 1085q142 0 249 -68.5t165 -194t58 -290.5q0 -163 -55.5 -289.5t-161 -197t-249.5 -70.5q-179 0 -292 91.5t-163 275.5l129 24q40 -146 120.5 -214t199.5 -68q100 0 174.5 50.5t116 142.5t47.5 214h-432v109h430q-10 123 -56.5 207.5t-118.5 126.5t-161 42
q-126 0 -199.5 -60.5t-105.5 -177.5l-129 24q49 160 154.5 241.5t279.5 81.5z" />
    <glyph glyph-name="afii10096" unicode="&#x44e;" horiz-adv-x="1472" 
d="M526 491h-258v-491h-129v1061h129v-461h259q11 156 68.5 265t151 164.5t211.5 55.5q129 0 228.5 -64t155 -188.5t55.5 -300.5q0 -177 -55.5 -302.5t-154.5 -190t-229 -64.5q-123 0 -218.5 59.5t-151.5 175.5t-62 281zM956 976q-85 0 -153.5 -50.5t-108.5 -151t-40 -244.5
q0 -146 39.5 -246.5t108 -150t156.5 -49.5q87 0 156.5 50t109.5 150.5t40 247.5q0 141 -39.5 241t-109 151.5t-159.5 51.5z" />
    <glyph glyph-name="afii10097" unicode="&#x44f;" horiz-adv-x="989" 
d="M721 0v457h-67q-59 0 -97 -11.5t-75.5 -46t-86.5 -102.5l-211 -297h-152l225 316q53 74 91.5 110t77.5 41q-156 4 -239.5 82t-83.5 212q0 300 386 300h361v-1061h-129zM485 956q-139 0 -194 -49.5t-55 -145.5q0 -65 24.5 -108t88 -67t174.5 -24h198v394h-236z" />
    <glyph glyph-name="afii10071" unicode="&#x451;" horiz-adv-x="1081" 
d="M561 84q107 0 185.5 57.5t113.5 159.5l127 -20q-51 -149 -164 -227.5t-271 -78.5q-146 0 -253.5 67t-165.5 191t-58 289q0 173 58.5 300t165.5 195t251 68q160 0 262.5 -75t149.5 -205t47 -299h-801q4 -131 48.5 -226.5t123 -145.5t181.5 -50zM548 977q-92 0 -164 -43
t-116.5 -124.5t-55.5 -195.5h664q-18 180 -101 271.5t-227 91.5zM460 1222h-123v162h123v-162zM769 1222h-123v162h123v-162z" />
    <glyph glyph-name="afii10099" unicode="&#x452;" horiz-adv-x="1096" 
d="M580 973q-88 0 -162.5 -45.5t-112.5 -122.5q-37 -74 -37 -212v-593h-129v1212h-139v102h139v152h129v-152h358v-102h-358v-311q51 85 139.5 134.5t189.5 49.5q174 0 269 -93.5t95 -265.5v-839q0 -110 -21.5 -179t-71.5 -103.5t-135 -34.5q-28 0 -61.5 5.5t-64.5 16.5
l24 109q36 -12 78 -12q51 0 77 16t36 57.5t10 125.5v820q0 128 -65 196.5t-187 68.5z" />
    <glyph glyph-name="afii10100" unicode="&#x453;" horiz-adv-x="717" 
d="M682 952h-414v-952h-129v1061h543v-109zM295 1200l153 266h175l-225 -266h-103z" />
    <glyph glyph-name="afii10101" unicode="&#x454;" horiz-adv-x="1064" 
d="M547 976q-89 0 -161 -42t-118.5 -126.5t-56.5 -207.5h430v-109h-432q6 -122 47.5 -214t116 -142.5t174.5 -50.5q119 0 199.5 67.5t120.5 214.5l129 -24q-50 -184 -163 -275.5t-292 -91.5q-144 0 -249.5 71t-161 197t-55.5 289q0 165 58 290.5t165 194t249 68.5
q174 0 279.5 -81.5t154.5 -241.5l-129 -24q-32 117 -105.5 177.5t-199.5 60.5z" />
    <glyph glyph-name="afii10102" unicode="&#x455;" horiz-adv-x="961" 
d="M460 976q-68 0 -121 -21t-82.5 -59.5t-29.5 -90.5q0 -55 24.5 -90.5t84 -60t167.5 -43.5q135 -25 216.5 -64t119.5 -99t38 -149q0 -93 -49.5 -166.5t-138.5 -115.5t-203 -42q-172 0 -276 77t-134 229l127 20q46 -217 282 -217q80 0 138.5 25.5t90 71t31.5 103.5
q0 63 -31 102t-97 63t-182 45q-168 29 -250.5 100.5t-82.5 197.5q0 84 44 150.5t125 104.5t189 38q154 0 252.5 -65.5t130.5 -192.5l-126 -18q-18 80 -84.5 123.5t-172.5 43.5z" />
    <glyph glyph-name="afii10103" unicode="&#x456;" horiz-adv-x="407" 
d="M139 1288v178h129v-178h-129zM139 0v1061h129v-1061h-129z" />
    <glyph glyph-name="afii10104" unicode="&#x457;" horiz-adv-x="407" 
d="M268 0h-129v1061h129v-1061zM108 1222h-123v162h123v-162zM417 1222h-123v162h123v-162z" />
    <glyph glyph-name="afii10105" unicode="&#x458;" horiz-adv-x="416" 
d="M277 1278h-129v188h129v-188zM277 -113q0 -110 -21.5 -179t-71.5 -103.5t-135 -34.5q-28 0 -61.5 5.5t-64.5 16.5l24 109q36 -12 78 -12q51 0 77 16t36 57.5t10 125.5v1173h129v-1174z" />
    <glyph glyph-name="afii10106" unicode="&#x459;" horiz-adv-x="1594" 
d="M371 952v-664q0 -163 -61.5 -237t-180.5 -74q-87 0 -134 20l21 107q46 -18 92 -18q134 0 134 205v770h682v-437h207q149 0 235 -38.5t121 -107.5t35 -168q0 -145 -98 -227.5t-298 -82.5h-331v952h-424zM1130 105q139 0 199 54t60 151q0 104 -62.5 156.5t-204.5 52.5h-198
v-414h206z" />
    <glyph glyph-name="afii10107" unicode="&#x45a;" horiz-adv-x="1538" 
d="M1466 310q0 -145 -97.5 -227.5t-298.5 -82.5h-331v519h-471v-519h-129v1061h129v-437h471v437h129v-437h207q149 0 235 -39t121 -107.5t35 -167.5zM1074 105q139 0 199 54t60 151q0 104 -62.5 156.5t-204.5 52.5h-198v-414h206z" />
    <glyph glyph-name="afii10108" unicode="&#x45b;" horiz-adv-x="1096" 
d="M626 1314v-102h-358v-311q51 87 139.5 135.5t189.5 48.5q174 0 269 -93.5t95 -265.5v-726h-129v708q0 128 -65 196.5t-187 68.5q-92 0 -164.5 -45.5t-110.5 -122.5q-37 -74 -37 -212v-593h-129v1212h-139v102h139v152h129v-152h358z" />
    <glyph glyph-name="afii10109" unicode="&#x45c;" horiz-adv-x="899" 
d="M268 603q71 0 107 15t56.5 47.5t56.5 113.5l58 130q26 57 53 89.5t65.5 47.5t96.5 15h68v-105h-46q-36 0 -56 -5.5t-37.5 -26.5t-37.5 -67l-58 -133q-33 -73 -64.5 -111t-92.5 -66q63 -13 108.5 -50t84.5 -102l239 -395h-152l-198 337q-40 68 -70 101t-71 47t-110 14
v-499h-129v1061h129v-458zM375 1200l153 266h175l-225 -266h-103z" />
    <glyph glyph-name="afii10110" unicode="&#x45e;" horiz-adv-x="958" 
d="M483 147h4q30 102 98 288l231 626h127l-456 -1216q-40 -106 -81 -165.5t-89.5 -84.5t-115.5 -25q-66 0 -128 16l27 109q18 -6 41.5 -9t42.5 -3q51 0 83 17t56.5 58t53.5 119l42 117l-399 1067h137l227 -618q55 -151 99 -296zM497 1295q69 0 112 35.5t58 111.5h121
q-15 -114 -91.5 -178t-199.5 -64q-130 0 -210 61.5t-97 180.5h122q10 -73 57 -110t128 -37z" />
    <glyph glyph-name="afii10193" unicode="&#x45f;" horiz-adv-x="1100" 
d="M139 1061h129v-952h564v952h129v-1061h-349v-350h-124v350h-349v1061z" />
    <glyph glyph-name="afii10050" unicode="&#x490;" horiz-adv-x="945" 
d="M174 0v1466h590v406h129v-531h-580v-1341h-139z" />
    <glyph glyph-name="afii10098" unicode="&#x491;" horiz-adv-x="754" 
d="M712 1466v-514h-444v-952h-129v1061h450v405h123z" />
    <glyph glyph-name="afii61352" unicode="&#x2116;" horiz-adv-x="1954" 
d="M921 259v1207h128v-1466h-149l-594 1200h-4v-1200h-128v1466h140l600 -1207h7zM1206 669q0 132 43.5 226t120 142t172.5 48q100 0 178 -52t121 -147t43 -220q0 -124 -41.5 -218.5t-118 -146.5t-179.5 -52q-172 0 -255.5 114.5t-83.5 305.5zM1539 980q-94 0 -148.5 -78
t-54.5 -235q0 -153 53 -233t151 -80q106 0 160 81t54 233q0 147 -54.5 229.5t-160.5 82.5zM1248 0v110h594v-110h-594z" />
    <glyph glyph-name="uni0496" unicode="&#x496;" horiz-adv-x="1885" 
d="M390 406l-215 -406h-155l240 445q65 119 113 186.5t97.5 104t115.5 53.5v4q-48 20 -83.5 54t-68 91.5t-73.5 154.5l-45 108q-31 76 -73 111t-105 35h-65v119h72q109 0 179.5 -52.5t118.5 -172.5l46 -114q52 -129 87.5 -186t85 -78t143.5 -21h33v624h139v-624h33
q94 0 143.5 21t85 78t87.5 186l46 114q48 120 118.5 172.5t179.5 52.5h72v-119h-65q-60 0 -103.5 -35t-74.5 -111l-45 -108q-41 -97 -73.5 -155t-68 -92t-83.5 -53v-4q66 -17 115.5 -53.5t97.5 -104t113 -186.5l172 -320h130v-531h-129v406h-88l-215 406q-72 136 -125 201.5
t-117.5 90.5t-172.5 25h-33v-723h-139v723h-33q-108 0 -172.5 -25t-117.5 -90.5t-125 -201.5z" />
    <glyph glyph-name="uni0497" unicode="&#x497;" horiz-adv-x="1398" 
d="M380 337l-198 -337h-152l239 395q39 65 84.5 102t108.5 50q-61 28 -92.5 66t-64.5 111l-58 133q-20 46 -37.5 67t-37.5 26.5t-56 5.5h-46v105h68q58 0 96.5 -15t65.5 -47.5t53 -89.5l58 -130q51 -116 80 -143q19 -18 42.5 -25.5t77.5 -7.5v458h129v-458q54 0 77.5 7.5
t42.5 25.5q29 27 80 143l58 130q26 57 53 89.5t65.5 47.5t96.5 15h68v-105h-46q-36 0 -56 -5.5t-37.5 -26.5t-37.5 -67l-58 -133q-33 -76 -64.5 -112.5t-92.5 -64.5q63 -13 108.5 -50t84.5 -102l173 -286h119v-459h-123v350h-82l-198 337q-39 67 -68.5 99.5t-66.5 47.5
t-96 15v-499h-129v499q-59 0 -96 -14t-66.5 -47.5t-68.5 -100.5z" />
    <glyph glyph-name="uni049A" unicode="&#x49a;" horiz-adv-x="1251" 
d="M376 842q94 0 143.5 21t85 78t87.5 186l46 114q48 120 118.5 172.5t179.5 52.5h72v-119h-65q-60 0 -103.5 -35t-74.5 -111l-45 -108q-41 -97 -73.5 -154.5t-67 -91.5t-84.5 -54v-4q66 -17 115.5 -53.5t97.5 -103t113 -187.5l172 -320h130v-531h-129v406h-88l-215 406
q-72 136 -125 201.5t-117.5 90.5t-172.5 25h-63v-723h-139v1466h139v-624h63z" />
    <glyph glyph-name="uni049B" unicode="&#x49b;" horiz-adv-x="946" 
d="M268 603q57 0 89.5 7.5t50.5 25.5q29 27 80 143l58 130q26 57 53 89.5t65.5 47.5t96.5 15h68v-105h-46q-36 0 -56 -6t-37.5 -26.5t-37.5 -66.5l-58 -133q-33 -73 -64.5 -111t-92.5 -66q63 -13 108.5 -50t84.5 -102l173 -286h119v-459h-123v350h-82l-198 337
q-40 68 -70 101t-71 47t-110 14v-499h-129v1061h129v-458z" />
    <glyph glyph-name="uni04B0" unicode="&#x4b0;" horiz-adv-x="1221" 
d="M1056 1466h153l-478 -740h340v-110h-400v-616h-139v616h-400v110h342l-462 740h159l439 -709z" />
    <glyph glyph-name="uni04B1" unicode="&#x4b1;" horiz-adv-x="976" 
d="M828 1061h133l-395 -959h306v-102h-320v-406h-129v406h-320v102h306l-394 959h133l340 -857z" />
    <glyph glyph-name="uni04B2" unicode="&#x4b2;" horiz-adv-x="1315" 
d="M1057 1466h145l-486 -696l441 -645h130v-531h-129v406h-83l-444 669l-457 -669h-166l550 774l-470 692h164l388 -595z" />
    <glyph glyph-name="uni04B3" unicode="&#x4b3;" horiz-adv-x="1019" 
d="M176 0h-156l394 553l-359 508h156l273 -404l3 -1l274 405h156l-359 -496l318 -456h119v-459h-123v350h-76l-310 461z" />
    <glyph glyph-name="uni04B6" unicode="&#x4b6;" horiz-adv-x="1331" 
d="M1289 -406h-129v406h-160v621q-245 -97 -430 -97q-147 0 -242 40t-145.5 140.5t-50.5 274.5v487h139v-483q0 -119 27 -192.5t92 -110.5t179 -37q207 0 431 95v728h139v-1341h150v-531z" />
    <glyph glyph-name="uni04B7" unicode="&#x4b7;" horiz-adv-x="1102" 
d="M768 447q-82 -35 -147 -53.5t-154 -18.5q-176 0 -269 90.5t-93 259.5v336h129v-319q0 -125 61 -189.5t184 -64.5q78 0 169 23.5t149 56.5v493h129v-952h138v-459h-123v350h-144v460z" />
    <glyph glyph-name="glyph497" horiz-adv-x="342" 
d="M-264 -53h-108l978 1544h108z" />
    <glyph glyph-name="afii00208" unicode="&#x2015;" horiz-adv-x="2048" 
d="M300 465v94h1448v-94h-1448z" />
    <glyph glyph-name="uni0E3F" unicode="&#xe3f;" 
d="M170 0v1446h330v153h76v-154q195 -9 295.5 -102t100.5 -260q0 -109 -46.5 -188.5t-150.5 -132.5q266 -90 266 -363q0 -118 -53 -208t-153 -140.5t-237 -50.5h-22v-207h-76v207h-330zM294 1337v-533h206v533h-206zM576 1335v-531q83 2 143 36.5t92 96t32 140.5
q0 118 -62 183.5t-205 74.5zM294 695v-586h206v586h-206zM596 109q153 0 233 77t80 212q0 89 -37 156t-106.5 104t-164.5 37h-25v-586h20z" />
    <glyph glyph-name="franc" unicode="&#x20a3;" 
d="M259 1446h786v-115h-657v-526h560v-115h-560v-278h260v-102h-260v-310h-129v310h-201v102h201v1034z" />
    <glyph glyph-name="lira" unicode="&#x20a4;" 
d="M160 1051q0 113 51.5 208t152 151t239.5 56q177 0 289.5 -96t143.5 -271l-125 -22q-24 141 -104 213t-203 72q-97 0 -167.5 -36.5t-107.5 -105t-37 -162.5q0 -82 22 -165h367v-94h-340q6 -23 22 -67q21 -67 27 -89h291v-94h-275q2 -28 2 -38q0 -87 -42.5 -173.5
t-136.5 -187.5l4 -5q85 31 186 31q36 0 77.5 -8.5t111.5 -27.5q71 -20 120.5 -30t93.5 -10q102 0 214 62l49 -116q-63 -36 -130.5 -53.5t-130.5 -17.5q-52 0 -102 12.5t-123 36.5q-70 23 -113 33.5t-87 10.5q-83 0 -146 -22t-132 -71l-62 125q116 103 167.5 197.5
t51.5 206.5q0 15 -2 45h-247v94h229q-12 47 -51 156h-178v94h151q-20 80 -20 158z" />
    <glyph glyph-name="peseta" unicode="&#x20a7;" horiz-adv-x="1903" 
d="M1216 992v-88h-154v-650q0 -63 7.5 -102.5t25.5 -57t52 -17.5q25 0 96 11l15 -100q-71 -13 -118 -13q-76 0 -119 28q-31 20 -47.5 47t-23.5 75t-7 133v646h-120q-35 -148 -160 -220.5t-325 -72.5h-69v-611h-127v1446h215q246 0 363 -111.5t117 -307.5l-1 -35h107v265
l119 76v-341h154zM704 1028q0 142 -83 221.5t-278 79.5h-74v-601h81q168 0 261 68t93 232zM1539 919q-70 0 -109 -40t-39 -101q0 -47 25 -82.5t60.5 -58.5t94.5 -54l18 -9q108 -57 164.5 -105t79 -100.5t22.5 -127.5q0 -70 -31.5 -130.5t-98.5 -98t-167 -37.5
q-141 0 -220.5 81.5t-95.5 209.5l121 21q11 -100 64 -157.5t135 -57.5q78 0 124.5 44.5t46.5 123.5q0 41 -13.5 73t-59 70t-137.5 84q-97 49 -150.5 92.5t-75.5 94t-22 121.5q0 65 32.5 120t95 88t144.5 33q120 0 194 -72.5t90 -200.5l-119 -16q-4 84 -51 138t-122 54z" />
    <glyph glyph-name="uni20A0" unicode="&#x20a0;" horiz-adv-x="1415" 
d="M786 933v-342h486v-108h-486v-375h549v-108h-667v391q-55 -12 -115 -12q-148 0 -255.5 66.5t-164.5 190.5t-57 294q0 159 60 280.5t169 188.5t251 67q130 0 226.5 -54t150.5 -158l-108 -47q-41 77 -109.5 116t-162.5 39q-105 0 -184.5 -55t-122.5 -152.5t-43 -223.5
q0 -133 40 -234t117.5 -157.5t188.5 -56.5q64 0 119 20v538h643v-108h-525z" />
    <glyph glyph-name="colonmonetary" unicode="&#x20a1;" 
d="M819 1271l-163 -1184q115 15 195 113t113 265l125 -33q-47 -217 -163.5 -333t-285.5 -123l-25 -183l-75 10l24 175q-73 7 -139 35l-30 -220l-75 10l35 249q-125 86 -191 260t-66 421q0 205 54.5 362.5t156.5 251.5t241 114l19 138l75 -10l-18 -123q80 -2 141 -23l22 156
l75 -10l-25 -178q161 -95 223 -338l-125 -33q-38 149 -118 231zM579 86l172 1238q-57 33 -140 33l-169 -1221q61 -43 137 -50zM375 198l159 1149q-96 -24 -164 -104.5t-103.5 -210t-35.5 -297.5q0 -177 36.5 -315t107.5 -222z" />
    <glyph glyph-name="uni20A2" unicode="&#x20a2;" 
d="M855 761q-68 0 -116 -49t-72 -136.5t-24 -202.5v-288q121 11 203.5 109t117.5 271l125 -33q-49 -224 -170.5 -340.5t-298.5 -116.5q-166 0 -283 90t-178 260.5t-61 407.5q0 222 63.5 388t181.5 255.5t277 89.5q170 0 281.5 -100t160.5 -293l-125 -33q-39 153 -120.5 235
t-201.5 82t-206.5 -75.5t-132 -216t-45.5 -330.5q0 -167 33 -300t97.5 -220t157.5 -117v763h116v-169l2 1q43 98 95 145t128 47q36 0 68 -9.5t77 -33.5l-43 -115q-59 34 -107 34z" />
    <glyph glyph-name="uni20A5" unicode="&#x20a5;" horiz-adv-x="1473" 
d="M681 689q0 161 -43.5 227.5t-130.5 66.5q-80 0 -137 -52t-86.5 -142.5t-29.5 -204.5v-584h-115v1061h111v-154h3q101 178 281 178q88 0 146.5 -46.5t92.5 -139.5q42 70 92 112l195 432l89 -38l-147 -326q32 6 64 6q127 0 199.5 -90t72.5 -263v-732h-115v721
q0 144 -45.5 203t-141.5 59q-46 0 -83 -14l-157 -349v-620h-115v364l-340 -755l-90 38l430 954v88z" />
    <glyph glyph-name="uni20A6" unicode="&#x20a6;" 
d="M272 1446l268 -531h339v531h124v-531h136v-94h-136v-156h136v-94h-136v-571h-145l-287 571h-311v-571h-124v571h-136v94h136v156h-136v94h136v531h136zM264 1180h-4v-265h137zM445 821h-185v-156h263zM879 821h-291l79 -156h212v156zM714 571l158 -312h7v312h-165z" />
    <glyph glyph-name="uni20A8" unicode="&#x20a8;" horiz-adv-x="1633" 
d="M864 1068q0 -102 -37 -180t-103.5 -126.5t-157.5 -62.5q69 -21 124 -79q27 -28 60 -95.5t76 -180.5l132 -344h-149l-108 302q-51 147 -88 215.5t-103 109t-183 40.5h-59v-667h-126v1446h290q216 0 324 -88t108 -290zM730 1062q0 112 -44.5 170.5t-110 77.5t-148.5 19
h-159v-546h111q114 0 188.5 22t118.5 83t44 174zM1269 919q-70 0 -109 -40t-39 -101q0 -47 25 -82.5t60.5 -58.5t94.5 -54l18 -9q108 -57 164.5 -105t79 -100.5t22.5 -127.5q0 -70 -31.5 -130.5t-98.5 -98t-167 -37.5q-143 0 -221.5 81.5t-94.5 209.5l121 21
q11 -100 64 -157.5t135 -57.5q78 0 124.5 44.5t46.5 123.5q0 41 -13.5 73t-59 70t-137.5 84q-97 49 -150.5 92.5t-75.5 94t-22 121.5q0 65 32.5 120t94.5 88t145 33q120 0 194 -72.5t90 -200.5l-119 -16q-4 84 -51 138t-122 54z" />
    <glyph glyph-name="uni20A9" unicode="&#x20a9;" horiz-adv-x="1433" 
d="M1226 665h207v-94h-226l-115 -571h-137l-108 571h-265l-112 -571h-137l-112 571h-221v94h203l-31 156h-172v94h154l-104 531h137l92 -531h256l100 530h162l98 -530h260l99 531h129l-107 -531h157v-94h-176zM717 1266l-68 -351h134zM517 821h-221l27 -156h164zM800 821
h-170l-30 -156h230zM1137 821h-225l29 -156h167zM340 571l62 -356l67 356h-129zM959 571l66 -356l66 356h-132z" />
    <glyph glyph-name="afii57636" unicode="&#x20aa;" 
d="M90 0v1061h323q174 0 269 -93.5t95 -265.5v-402h-129v384q0 128 -65 196.5t-187 68.5h-177v-949h-129zM927 377v684h129v-702q0 -172 -95 -265.5t-269 -93.5h-323v761h129v-649h177q122 0 187 68.5t65 196.5z" />
    <glyph glyph-name="dong" unicode="&#x20ab;" 
d="M506 1304h358v142h129v-142h146v-102h-146v-1202h-121v167h-4q-53 -91 -139 -141.5t-197 -50.5q-134 0 -237.5 69.5t-161.5 195.5t-58 290q0 166 56.5 292t158.5 194.5t236 68.5q217 0 332 -180h6v297h-358v102zM536 976q-101 0 -175 -57t-113.5 -158.5t-39.5 -231.5
q0 -134 42 -235t117 -155.5t170 -54.5q105 0 180.5 53t116 152t40.5 234q0 140 -42 242t-118 156.5t-178 54.5zM125 -271v102h865v-102h-865z" />
    <glyph glyph-name="uni20AD" unicode="&#x20ad;" 
d="M942 1446h152l-574 -607h381v-102h-374l577 -737h-159l-563 737h-11v-737h-127v737h-194v102h194v607h127v-607h6z" />
    <glyph glyph-name="uni20AE" unicode="&#x20ae;" 
d="M242 544v112l258 196v465h-448v129h1035v-129h-448v-365l262 198v-112l-262 -198v-203l262 197v-112l-262 -197v-525h-139v426l-262 -198v112l262 198v202z" />
    <glyph glyph-name="uni20AF" unicode="&#x20af;" horiz-adv-x="2175" 
d="M610 1466q38 78 80 129.5t95 91.5l67 -73q-36 -31 -65 -68t-55 -88q154 -22 274.5 -100t189 -206.5t68.5 -293.5q0 -292 -121.5 -485.5t-315 -283t-413.5 -89.5h-406l25 101q107 47 177.5 129.5t125 236.5t106.5 420q57 292 121 469q-163 -8 -260 -85t-145 -230l-117 32
q61 183 197.5 287t371.5 106zM687 1352q-55 -156 -122 -480q-52 -254 -99 -402t-99 -227.5t-124 -124.5h182q191 0 350 73t257.5 238.5t98.5 428.5q0 132 -52 238t-152 173t-240 83zM1791 940q95 0 165 -45t107 -126.5t37 -186.5q0 -150 -59 -290t-169 -228.5t-255 -88.5
q-81 0 -142 22.5t-91 58.5h-4l-98 -462h-118l176 830q52 244 166 380t285 136zM1789 831q-117 0 -199 -106.5t-124 -304.5l-50 -240q24 -46 78.5 -71t122.5 -25q88 0 169 65t130.5 178.5t49.5 251.5q0 115 -46.5 183.5t-130.5 68.5z" />
    <glyph glyph-name="uni20B0" unicode="&#x20b0;" 
d="M318 814l171 -215l125 154q-92 83 -143 145t-74 122.5t-23 135.5q0 82 35 153t100.5 114t154.5 43q88 0 152 -42t97 -113.5t33 -158.5q0 -91 -41.5 -178.5t-131.5 -203.5q95 -79 150 -147.5t79 -135t24 -142.5q0 -95 -38 -177.5t-134 -137.5t-260 -55q-177 0 -293 81
l63 105q103 -81 225 -81q163 0 234 73t71 194q0 74 -24 129.5t-62.5 98t-108.5 103.5l-209 -257l-171 211l-193 -293l-86 53zM687 845q72 93 99.5 164.5t27.5 147.5q0 86 -40.5 143t-109.5 57q-77 0 -119 -57.5t-42 -140.5q0 -57 13.5 -100.5t53 -93t117.5 -120.5z" />
    <glyph glyph-name="uni20B1" unicode="&#x20b1;" 
d="M967 1007q0 -36 -5 -76h147v-94h-171q-49 -130 -172 -198t-298 -68h-159v-571h-127v837h-162v94h162v156h-162v94h162v265h305q185 0 297 -70.5t155 -194.5h170v-94h-147q5 -43 5 -80zM473 1329h-164v-148h486q-80 148 -322 148zM827 1087h-518v-156h519q6 35 6 77
q0 43 -7 79zM797 837h-488v-149h163q246 0 325 149z" />
    <glyph glyph-name="uni20B2" unicode="&#x20b2;" 
d="M104 739q0 324 110 515t328 210v135h76v-134q158 -8 251 -97t134 -270l-125 -36q-27 140 -87 213.5t-173 84.5v-1281q66 3 139 30t133 74v429h-194v104h323v-576q-80 -77 -184 -118.5t-217 -45.5v-183h-76v184q-173 13 -269.5 114.5t-132.5 262.5t-36 385zM542 83v1277
q-144 -17 -224.5 -171t-80.5 -448q0 -180 18.5 -311.5t85.5 -229.5t201 -117z" />
    <glyph glyph-name="uni20B3" unicode="&#x20b3;" 
d="M913 535h206v-94h-176l140 -441h-147l-131 441h-488l-124 -441h-137l131 441h-167v94h195l46 156h-241v94h269l197 661h139l209 -661h285v-94h-255zM554 1285l-140 -500h288zM730 691h-343l-44 -156h434z" />
    <glyph glyph-name="uni20B4" unicode="&#x20b4;" 
d="M560 692q-61 -13 -112 -27h671v-94h-851q-32 -34 -46.5 -79.5t-14.5 -109.5q0 -88 37.5 -156t114.5 -107t190 -39q106 0 176.5 33t115 106t68.5 195l122 -17q-32 -208 -156 -315t-331 -107q-165 0 -268.5 59t-148.5 151t-45 197q0 111 44 189h-106v94h186q107 86 326 133
q45 9 93 23h-605v94h795q33 33 45 73t12 96q0 128 -79.5 203t-242.5 75q-250 0 -307 -263l-122 19q38 168 141 258t296 90q149 0 247.5 -49t145 -135.5t46.5 -200.5q0 -96 -39 -166h161v-94h-239q-58 -48 -136.5 -78t-183.5 -51z" />
    <glyph glyph-name="uni20B5" unicode="&#x20b5;" 
d="M98 733q0 211 57.5 371t164.5 253t252 107v135h76v-134q158 -8 262 -108t152 -284l-125 -33q-36 142 -109 223t-180 92v-1269q119 13 200.5 111t115.5 268l125 -33q-47 -215 -161.5 -331t-279.5 -125v-183h-76v184q-151 13 -257.5 106.5t-161.5 258.5t-55 391zM572 87
v1267q-107 -13 -183.5 -92t-117 -214t-40.5 -313q0 -182 39.5 -323.5t116 -226t185.5 -98.5z" />
    <glyph glyph-name="glyph521" 
d="M361 1352h-231v94h898v-94h-360q123 -79 141 -237h220v-94h-219q-9 -96 -59.5 -168.5t-135.5 -113.5t-195 -44v-6q58 -17 95.5 -43t71.5 -81t73 -156l158 -409h-139l-158 425q-48 130 -125 187.5t-197 57.5h-68v104h207q160 0 245 62.5t95 184.5h-547v94h545
q-17 112 -97 174.5t-218 62.5z" />
    <glyph glyph-name="glyph522" 
d="M383 803l382 192v-103l-382 -192v-596h93q143 0 237.5 66t142 208t47.5 368h132q0 -382 -142 -564t-421 -182h-218v641l-218 -109v103l218 109v190l-218 -109v103l218 109v409h129v-350l382 192v-103l-382 -192v-190z" />
    <glyph glyph-name="glyph523" 
d="M33 597v108h185v741h336q155 0 267 -49t171 -143t59 -227q0 -124 -54 -221t-168.5 -153t-287.5 -56h-195v-156h486v-108h-486v-333h-128v333h-185v108h185v156h-185zM919 1024q0 313 -381 313h-192v-632h197q195 0 285.5 77.5t90.5 241.5z" />
    <glyph glyph-name="glyph524" 
d="M226 313v-313h-128v313q0 435 107 654.5t300 231.5v247h128v-248q135 -8 224.5 -96.5t136.5 -281.5t47 -510v-310h-128v310q0 418 -74.5 596.5t-205.5 183.5v-790h-128v790q-131 -8 -205 -191t-74 -586z" />
    <glyph glyph-name="glyph525" horiz-adv-x="682" 
d="M352 1568l-225 266h174l154 -266h-103z" />
    <glyph glyph-name="glyph526" horiz-adv-x="682" 
d="M248 1590h-123v164h123v-164zM557 1590h-123v164h123v-164z" />
    <glyph glyph-name="glyph527" horiz-adv-x="682" 
d="M410 1530l28 -80q-50 -11 -70.5 -36t-20.5 -72h81v-157h-175v151q0 74 36.5 122t120.5 72z" />
    <glyph glyph-name="glyph528" horiz-adv-x="175" 
d="M44 1049l-54 71q38 23 56.5 42t26 45.5t8.5 73.5h-81v185h175v-176q0 -85 -32.5 -141.5t-98.5 -99.5z" />
    <glyph glyph-name="glyph529" horiz-adv-x="682" 
d="M271 -430l-28 80q48 10 69.5 33.5t21.5 64.5h-81v157h175v-149q0 -63 -34 -109.5t-123 -76.5z" />
    <glyph glyph-name="glyph530" horiz-adv-x="682" 
d="M272 -328v162h138v-162h-138z" />
    <glyph glyph-name="glyph531" horiz-adv-x="682" 
d="M137 1568l153 266h175l-225 -266h-103zM402 1568l153 266h175l-225 -266h-103z" />
    <glyph glyph-name="glyph532" horiz-adv-x="682" 
d="M475 1598q-34 0 -67.5 9t-76.5 31q-50 26 -73.5 34.5t-43.5 8.5q-29 0 -42.5 -20t-16.5 -63h-105q5 95 44 141.5t115 46.5q68 0 142 -40q49 -26 73 -34.5t44 -8.5q29 0 42.5 19.5t16.5 63.5h105q-5 -88 -43 -138t-114 -50z" />
    <glyph glyph-name="glyph533" horiz-adv-x="682" 
d="M341 1881q49 0 90 -24t65 -65t24 -90t-24 -90t-65 -65t-90 -24t-90 24t-65 65t-24 90t24 90t65 65t90 24zM341 1588q48 0 81 33.5t33 80.5t-33.5 80.5t-80.5 33.5t-80.5 -33.5t-33.5 -80.5t33.5 -80.5t80.5 -33.5z" />
    <glyph glyph-name="glyph534" horiz-adv-x="682" 
d="M272 1590v162h138v-162h-138z" />
    <glyph glyph-name="glyph535" horiz-adv-x="682" 
d="M348 1673q73 0 112.5 32t54.5 105h105q-14 -113 -85.5 -177.5t-186.5 -64.5q-123 0 -198 64t-88 178h106q10 -71 54.5 -104t125.5 -33z" />
    <glyph glyph-name="glyph536" horiz-adv-x="682" 
d="M49 1595v110h584v-110h-584z" />
    <glyph glyph-name="glyph537" horiz-adv-x="682" 
d="M202 1834l139 -184l139 184h132l-197 -266h-148l-197 266h132z" />
    <glyph glyph-name="glyph538" horiz-adv-x="682" 
d="M480 1568l-139 184l-139 -184h-132l197 266h148l197 -266h-132z" />
    <glyph glyph-name="glyph539" horiz-adv-x="1331" 
d="M1256 532q0 -167 -64.5 -287.5t-183 -188t-278.5 -78.5v-384h-129v383q-159 12 -277.5 79t-183.5 187t-65 287t65.5 287.5t184 187t276.5 77.5v384h129v-384q159 -11 277.5 -78t183.5 -186.5t65 -285.5zM601 87v886q-116 -11 -204.5 -64.5t-138.5 -149t-50 -229.5
q0 -201 106 -313.5t287 -129.5zM730 972v-885q117 12 205.5 65t138 148.5t49.5 231.5q0 129 -48.5 224t-137 149.5t-207.5 66.5z" />
    <glyph glyph-name="glyph540" horiz-adv-x="682" 
d="M227 1568l153 266h175l-225 -266h-103z" />
    <glyph glyph-name="glyph541" horiz-adv-x="682" 
d="M349 1295q69 0 112 35.5t58 111.5h121q-15 -114 -91.5 -178t-199.5 -64q-130 0 -210 61.5t-97 180.5h122q10 -73 57 -110t128 -37z" />
    <glyph glyph-name="glyph542" horiz-adv-x="682" 
d="M350 1663q77 0 121 35t62 112h121q-17 -115 -95.5 -178.5t-208.5 -63.5q-139 0 -221 61t-101 181h122q11 -74 61 -110.5t139 -36.5z" />
  </font>
</defs>
</svg>
